&title=チューリングの跡
&artist=Frums
&first=0
&des=DX-100号
&wholebpm=180
&lv_6=14+
&inote_6=(180)
{1},
{8},,,,,,,,
{384}1q5p3[4:7]/5q1p7[4:7],,,,,,,,2x,6x,,,,,,,3x,7x,,,,,,,4x,8x,,,,,,,{48},,,,,,,,{1},,{4},
{384}4q8-2[4:3]/8q4-6[4:3],,,,,,,,3x,7x,,,,,,,2x,6x,,,,,,,1x,5x,,,,,,,{48},,,,,,,,{1},{4},
{384}1p5[4:2]/5p1[4:2],,,,,,,,2x,6x,,,,,,,3x,7x,,,,,,,4x,8x,,,,,,,{48},,,,,,,,{2},{8},,,
{48}3q7q3[4:4]*q7q3[4:4]/5h[4:2],2x,1x,8x,,,,,,,,,,,,{16},,,,,,,,,,,,,5x,6x,7x,8x,1h[4:1],,,,5h[4:1],,,,3,,,7,,,,,
{48}7q3q5q1p7[4:12]/1h[4:2],6x,5x,4x,,,,,,{16},,,,,,,,,,,,,,,,,,,,,
{48}1q5p3b[4:6],2x,3x,4x,,,,,,{16},,,,,,,,,,,,,,,,,,,,,,,,,,,,,,,,,,,,,
5,4,5,6,5,,3,4,3,2,3,,7,8,7,6,7,,1,8,{12}2bx,2,8,4,4,7,5,5,1,3,3,4,1,1,7,
{16}4,5,4,3,4,,6,5,6,7,6,,2,1,2,3,2,,8,1,{12}7bx,7,1,5,5,2,4,4,8,6,6,5,8,8,1,
{16}5,4,3,2,1,8,7/4,5,6,7,8,1,
{8}2h[8:7]/6h[8:7],,,,,,,{384},,,,,,,,3x,7x,,,,,,,4x,8x,,,,,,,1xh[16:29]/5xh[16:29],,,,,,,,{48},,,,,,,,
{1},,{8},
{16}1/8,,6,5,7,5,6,4h[8:1],,7,8,6,8,7,1h[8:1],,5b,{2},{16},,,,,
6,7,1/8,,3,4,2,4,3,5h[8:1],,2,1,3,1,2,8h[8:1],,2,3,{2}4bx,{8},
{16}5,6,7,8,1/2,,4,5,3,5,4,6h[8:1],,1,8,1,,,8,7,
2/6,,3,4/8,,7,2/6,,3,4/8,,,4,3,2,1,
{32}7bx,,,1x,,,5x,,,3x,,,{16}6,4h[8:1],,,8,1,8,,1,2,
3/7,,6,1/5,,2,3/7,,6,1/5,,,8,7,6,5,
{16}3/4,,1,8,2,1h[8:1],,3h[8:1],,5,4,5,4,,8,,
2/6,,1,2/6,,5,2/6,,1,2/6,,,1,2,3,4,
5/6,,8,1,7,8h[8:1],,6h[8:1],,4,5,4,5,,1,,
3/7,,6,3/7,,2,3/7,,6,3/7,,,1b/8b,,,,
3,4,3,6,5,6,3,4,3,6,5,6,1,8,1,8,2,4,2,7,5,7,2,4,2,7,5,7,1,8,1,8,
3,4,3,6,5,6,2,3,2,7,6,7,4,5,4,5,3,2,3,6,7,6,2,1,2,7,8,7,
4x,3x,2x,1x,{24}8x,4x,8x,4x,8x,4x,8x,4x,8x,4x,8x,4x,
{16}4bxq8p6[4:6]/8bxq4p2[4:6],,,
{48},,,,,,,,,,,,
{16},,,,,,,,,,,,,,,,,,,,,,,,,1q5[4:1],,,
{16},1/7,,,,8,,,1,,,2p6[4:1],,,,4,
{16},,,8p4[4:1],,,,2,,,,1,,8q2[8:3],,,
{16},6/8,,,,4q8[8:2],,,,1q3[8:3],,,,,,,,,,7,6,5q1[8:2],,,2,,,3,,4p8[4:1],,,
{16},7p5[8:3],,,,,,,,,,2q6q2[4:3]*q6q2[4:3],,,,,
{16},,,,,,,,,,,,,5,,
4,,6,5h[8:1],,3,4h[8:1],,7,6h[16:3],,,{24}8h[24:5],,,,,{12}2x,6x,1,2,3,
{16}4/8,7,6,5,{12}3x,7x,1xh[12:3],,,,{16}6,5,6,7,6,5,
6h[4:1],,,,3h[4:1],,,,2,,4,,6,5,,,4,,2,3,,,
{256}2/6,,,,,,,,3x,7x,,,,,,,4x,8x,,,,,,,1x,5x,,,,,,,{16}2xh[16:20]/6xh[16:14],,,,,,,,,,,,,,{16},,,,,,5,1,4,8,3,7,4,6,5h[4:2],,,,,,,,
{16}4h[16:6],,,,,,3,2,3,4h[16:7],{8},,,5h[4:1],,6,,,
{8}1/8,1/8,{12}1,2,3,5,6,7,2,3,4,6,7,8,3,4,5,7,8,1,{24}5hb[8:1],,,1x,8x,7x,
{24}4x,3x,2x,8x,7x,6x,3x,2x,1x,7x,6x,5x,2x,1x,8x,6x,5x,4x,1x,8x,7x,6x,5x,4x,
{16}3p7p3[4:4]*p7p3[4:4],{384},,,,,,,,{48},,,,,,,,
{16},,,,,,,,,,,,,,,,1,8,7,6,5h[4:1],,,,1h[4:1],,,,7,,,3,,,,,
{384}4q8-2[4:3]/8q4-6[4:3],,,,,,,,3x,7x,,,,,,,2x,6x,,,,,,,1x,5x,,,,,,,
{16},,,,,,,,,,,,,,,,,,,,,{32},
{384}1p5[4:2]/5p1[4:2],,,,,,,,2x,6x,,,,,,,3x,7x,,,,,,,4x,8x,,,,,,,,,,,
{16},,,,,,,,,
{32},,,,,,,,,,,,,6q2q6[16:17]*q2q6[16:17],
{16},{48}4h[16:7],,,,,,,,
{16},,,,,,,,,,,,,,,,8,1,2,3,4h[4:1],,,,8h[4:1],,,,2,,,6,,,,,
{48}2p6p4p8q2[4:12]/8h[4:2],3x,4x,5x,,,,,,{16},,,,,,,,,,,,,,,,,,,,,
{48}8p4q6b[4:6],,7x,,6x,,,,,{16},,,,,,,,,,,,,,,,,,,,,,,,,,,,,,,,,,,,,
{16}6,5,6,5,6,5,6,5,6h[4:1],,,,8,7,6,5,
{16}8/4,3,2,5b/1,8,7,6,5,
{16}8/4,3,2,5b/1,8,7,6,5,
{16}8/4,7,6,1b/5,4,3,2,1,
{16}8/4,7,6,1b/5,4,3,2,1,
{16}8/4,3,2,5b/1,8,7,6,5,
{16}8/4,7,6,5,4/3,,7h[4:1],,
{8},1h[4:1],,8h[4:1],,2h[4:1],,{16}3,4,
{16}1/5,6,7,4b/8,1,2,3,4,
{16}1/5,6,7,4b/8,1,2,3,4,
{16}1/5,2,3,8b/4,5,6,7,8,
{16}1/5,2,3,8b/4,5,6,7,8,
{16}1/5,6,7,4b/8,1,2,3,4,
{16}1/5,2,3,8b/4,5,6,7,8,
{16}1/5,6,7,8,1,2,3,4,
{16}1/5,2/6,3/7,4/8,1b/5b,,,,
{16}8/4,3,2,5bh[8:1]/1,8,7,6,5,
{16}8/4,3,2,5bh[8:1]/1,8,7,6,5,
{16}8/4,7,6,1bh[8:1]/5,4,3,2,1,
{16}8/4,7,6,1bh[8:1]/5,4,3,2,1,
{16}8/4,3,2,5bh[8:1]/1,8,7,6,5,
{16}8/4,7,6,5,4/3,,7h[4:1],,
{8}5,1h[4:1],4,8h[4:1],6,2h[4:1],5,{16},,
{16}1/5,6,7,4bh[8:1]/8,1,2,3,4,
{16}1/5,6,7,4bh[8:1]/8,1,2,3,4,
{16}1/5,2,3,8bh[8:1]/4,5,6,7,8,
{16}1/5,2,3,8bh[8:1]/4,5,6,7,8,
{16}1/5,6,7,4bh[8:1]/8,1,2,3,4,
{16}1/5,2,3,8bh[8:1]/4,5,6,7,8,
{16}1/5,6,7,8,1,2,3,4,
{16}1/5,2/6,3/7,4/8,1b/5b,,,,
{24}8bh[12:4]/1x,2x,3x,4x,5x,6x,7x,,,,,,1bh[3:1]/8x,7x,6x,5x,4x,3x,2x,,,,,,
7bh[3:1]/8x,1x,2x,3x,4x,5x,6x,,8x,1x,2x,3x,{12}4bx/5b,,,,,,
{16}4,5,4,3,4,5,7,6,5,6,7,6,2,1,2,3,2,1,4,5,{12}3bx,3,8,2,2,5,4,4,8,7,7,6,1bx,,,
{16}5,4,5,6,5,4,2,3,4,3,2,3,7,8,7,6,7,8,5,4,{12}6bx,6,1,7,7,4,5,5,1,2,2,3,8bx,,,
(165){16}3,2,1,8,7,6,(150)1/5,4/8,3/7,2/6,5/1,4/8,
(149){1}3h[32:32]/7h[32:32],(135){32},6x,5x,4hx[32:50]/8h[32:50],
(127){2},,,(135){256}3x,7x,,,,,,,,,,,,,,,2x,6x,,,,,,,,,,,,,,,
(140){8}5xq1p7[8:19]/1q5p3[8:19],,,{1},,,,
E
