&title=innocent arrogance
&artist=BiSH
&first=0
&des=B2f
&lv_5=14
&inote_5=(170)
{1},
{16}3>6[4:3]/5h[4:3],,,,,,,,,,,,,,,,
{16}4-6[8:3]*-2[8:3],,,,,,,,,,,,,,,,
{16}3>6[4:3]/5h[4:3],,,,,,,,,,,,,,,,
{16}4v5[8:3]*v3[8:3],,,,,,,,,,,,,,,,
{16}6h[4:1],,,,5,,4h[4:1],,,,5,,4/6,,,,
{16}3h[4:1],,,,4,,5h[4:1],,,,4,,5/3,,,,
{16}57,,,,64,,,,24,,,,3qq4[4:3]/5pp4[4:3],,,,
{16},,,,,,,,,,,,,,,,
{16}3>6[4:3]/4h[8:3],,,,,,,,5h[8:3],,,,,,,,
{16}4-6[8:3]*-2[8:3],,,,,,,,,,,,,,,,
{16}3>6[4:3]/4h[8:3],,,,,,,,5h[8:3],,,,,,,,
{16}4-6[8:3]*-2[8:3],,,,,,,,,,,,,,,,
{16}6h[4:1],,,,5,,4h[4:1]/7-5[8:1],,,,7,,4,,,,
{16}3h[4:1],,,,4,,5h[4:1]/2-4[8:1],,,,2,,5,,,,
{16}8-4[8:1],,,,2-6[8:1],,,,5-7[8:1]*-2[8:1],,,,,,,,
{16}6<2v4[8:4],,,,,,,,,,,,,,,,
{16}6x-8[8:1]/7x-5[8:1],,,,,,,,3x-1[8:1]/2x-4[8:1],,,,,,,,
{16}7/5,,,1s5[16:4]/4,,,7-3[16:1],,7,,,,,,,,
{16}1b,6,5,6,2,5,4,5,1,4,3,4,2/5x,,6,4,
{16}7,,3,4,,7,5,,6,4,6,3,5,2,6,4,
{16}8b,3,4,3,7,4,5,4,8,5,6,5,4x/7,,3,5,
{16}2,,6,5,,2,4,,3,5,3,6,4xh[8:1]/5xh[8:1],,,,
{16}1b-5[8:1]/8b-4[8:1],,,,1b/8b,,,,2,4,3,4,1,8,5,6,
{24}1,2,3,8,7,6,2,3,4,7,6,5,3,2,1,8,7,6,3,2,1,8,7,6,
{16}3b,,2,,7,4,5,1,6,3,8-4[8:1],2,5,4,8b,,
{16},,25,,36,,47,,{24}6,5,6,{16}5,,{32}4x>5p3[4:6],3x,2x,1x,,,,,
{16}4bx/E1f/B8/B1,,,,,,,,,,,,,,,,
{16},,,,,,,,,,,,,,,,
{16}2>5p7[8:11]/6<1p3[8:11],,,,,,,,,,,,,,,,
{16},,,,,,,,,,,,,,,,
{16}4^3v2^1-4[8:11]/5^6v7^8-5[8:11],,,,,,,,,,,,,,,,
{16},,,,,,,,,,,,,,,,
{16}2v3-5[16:6]/6,,,,7-1[8:1],,7,,,,,,48,,,,
{16}7v6-4[16:6]/3,,,,2-8[8:1],,2,,,,,,5/1-7-2-6-3[4:4],,,,
{16}7h[4:3],,,,,,,,,,,,,,,,
{16}7p2[4:2]*v2[4:2],,,,,,,,,,,,,,,,
{16}7-2[8:1],,,,1,,3-7[8:1],,,,6-3[8:1],,,,1,,
{16}2p1[8:3],,,,5,,,,,,6,,6,,,,
{16}3^6[8:1],,,,5,,7p3[8:1],,,,2^7[8:1],,,,4,,
{16}6p5[8:3],,,,1,,,,,,2,,2,,,,
{16}64,,6,,53,,5,,46,,4,,35,,3,,
{16}24,,2,,35,,4,,75,,7,,46,,5,,
{16}3,4,3,4,2,5,2,5,1,6,1,6,8,7,8,7,
{16}2bx,6bx,4bx,8bx,3xh[2:1]/7xh[2:1],,,,,,,,,,,,
{32}7b^2[8:1]/1b,,,,,,{16}3,7,,5,,{32}1^6[8:1],,,,,,{16}2,1,,3,,
{32}2b^7[8:1]/5b,,,,,,{16}6,2,,4,,{32}8q4[8:1],,,,,,{16}7,8,,6,,
{48}8b,D8,A7,D7,A6,D6,A5,D5,A4,D4,A3,D3,A2,D2,A1,D1,A8,D8,{16}A7/D7/E7f/C,,,,,,1,,28,,
{16}7h[16:3],,,5h[16:3],,,4,,2,2,8,,6,4,5,,
{32}3b^6[8:1]/7b,,,,,,{16}8,3,,1,,{32}5^2[8:1],,,,,,{16}6,5,,7,,
{32}6b^3[8:1]/1b,,,,,,{16}2,6,,8,,{32}4q8[8:1],,,,,,{16}3,4,,2,,
{48}1b,D2,A2,D3,A3,D4,A4,D5,A5,D6,A6,D7,A7,D8,A8,D1,A1,D2,{16}A2/D3/E3f/C,,,,,,6,5,6,5,
{16}7,,3,4,2,,6,5,7,,3,5,2,,6,4,
{32}7b^2[8:1]/3bx,,,,,,{16}1,7,,3,,{32}5b^2[8:1]/1b,,,,,,{16}7,5,,6,,
{32}1b^6[8:1]/5b,,,,,,{16}7,1,,5,,{32}4bq8[8:1]/8b,,,,,,{16}1,4,,2,,
{24}3b,2x,1x,8x>7qq6b[32:28],7x,6x,5x,4x,3x,2bx/8bx,,,,,,,,,2bxpp3[32:8],,,,,,
{16},,,,,,,,18,,3,4,,6,5,,
{16}7-4b[8:1]/3-8b[8:1],,,,7b/3b,,,,1,2,3,4,8,7,6,5,
{16}4bx^7b[8:1]/8bx^3[8:1],,,,,,,,4bxp7b[8:1]/8bxp3[8:1],,,,,,,,
{16}8xp4[32:66]*V64[1:2]/4x,,,,,,,,,,,,,,,,
{16},,,,,,,,,,,,,,,,
{16},,,,,,,,,,,,,,,,
{16},,,,,,,,,,,,,,,,
{16}2h[8:4],,,,5,,4h[8:4],,,,6,,5h[8:3],,,,
{16}7h[8:4],,,,4,,5h[8:4],,,,3,,4h[8:3],,,,
{16}1h[8:4],,,,4,,3h[8:3],,,,6,,5,,,,
{16}1s5s1[16:8],8z4z8b[16:7],1,8,,,,,,,,,,,2/7,,
{16}1b,6,5,6,8,5,4,5,1,4,3,4,8,5,4,5,
{16}7,5,3,5,8,5,3,5,7,5,4,5,{32}8b,1x,2x,3x,,,,,
{16}8b,3,4,3,1,4,5,4,8,5,6,5,1,4,5,4,
{16}2,4,6,4,1,4,6,4,2,4,5,4,{32}1b,8x,7x,6x,,,,,
{16}1b^4b[8:1]/8b^5b[8:1],,,,{32}D1f/A8/A1/D2/D8/E1/E8/E2,,,,{16},,2,4,3,4,1,8,5,6,
{24}2,3,4,8,7,6,1,2,3,7,6,5,3,2,1,8,7,6,4,3,2,1,8,7,
{16}4b,,3,7,2,5,4,5,1,7,4,6,{24}3,4,3,6,5,6,
{16}1bx-7-3-5[2:1],,,,,,,,6-2b[8:1],,,,,,,,
{16}8-5[8:1],,,,5,,3-8[8:1],,,,6-3[8:1],,,,7,,
{16}8q1[8:3],,,,5,,,,,,7,,7,,,,
{16}1^4[8:1],,,,4,,6^1[8:1],,,,3^6[8:1],,,,2,,
{16}1p8[8:3],,,,4,,,,,,2,,2,,,,
{16}75,,7,,64,,5,,24,,2,,53,,4,,
{16}85,,7,,68,,5,,41,,2,,83,,4,,
{16}7,5,6,5,8,1,8,2,4,2,5,3,7,1,8,3,
{16}5bx,1bx,7bx,3bx,A6/A2/E7/B7/B1/E2/E3/B3/B5/E6/Cf,,,,,,,,,,,,
{32}1b/8b,72,63,5xh[32:21]/4xh[32:21],,,,,,,,,,,,,,,,,,,,,,,,,,,,,
{32}7b/8b,16,25,3xh[32:21]/4xh[32:21],,,,,,,,,,,,,,,,,,,,,,,,,,,,,
{32}2b/1b,83,74,6xh[32:21]/5xh[32:21],,,,,,,,,,,,,,,,,,,,,,,,,,,,,
{32}3b/7b,,,,,,46,,{16},,35,,1,,,,3^8b[8:1]/7,,,,
{32}7b,6,5,4xh[32:13],,,,,,,,,,,,,8,,,,,,,,2/6^1b[8:1],,,,,,,,
{32}2b,3,4,5xh[32:13],,,,,,,,,,,,,1,,,,,,,,6/2^7b[8:1],,,,,,,,
{32}6b,5,4,3xh[32:13],,,,,,,,,,,,,7,,,,,,,,{16}6,5,6,5,
{16}7,,3,4,1,,6,5,8,,3,5,8,,6,4,
{16}1b-5[8:1],,3,5,1,,{24}6,7,8,{16}1,,2^5[8:1],4,3,,1/2,,
{16}6b-1[8:1],,8,4,6,,{24}2,3,4,{16}5,,{16}8^3[8:1],1,7,,{16}8/6,,
{24}7b,6,5,4-7-1>6[32:14],3,2,1,8,7,6b,,,,,,,,,8v5b[8:1]*v3b[8:1],,,,,,
{16},,,,26,,,,47,,3,24,,6,57,,
{24}2bv5[8:1]/8bv5[8:1],37,46,{16},,2b/8b,,,,{24}4,3,2,8,7,6,4,3,2,8,7,6,
{24}3,2,1,8,7,6,2<5>6[2:1],1<5>6[24:11],8<4>6[24:10],7<3>6[24:9],6>6[24:8],5>6[24:7],2b,,,,,,8,7,6,5,4,3,
{16}2bxqq7V53[32:104]*qq7<3[32:104],,,,,,,,,,,,,,,,
{16},,,,,,,,,,,,,,,,
{16},,,,,,,,,,,,,,,,
{16},,,,,,,,,,,,,,,,
{16}3h[4:1],,4,,4,,5h[4:1],,4,,4,,3h[4:1],,5,,
{16}6h[4:1],,5,,5,,4h[4:1],,5,,5,,6h[4:1],,4,,
{16}2h[4:1],,4,,5,,6h[4:1],,5,,4,,3h[4:1],,5,,
{16}7h[4:1],,5,,4,,3h[4:1],,5q1b[8:1],,7p3[8:1],,,,,,
{16},,,,,,,,,,,,,,,,
{16},,,,,,,,,,,,,,,,
