&title=トリノコシティ[cover カグラナナ]
&artist=神楽 七奈
&first=0
&des=尘落南丘
&clock_count=4
&lv_5=13
&inote_5=(135)
{1},
{16}7h[4:1]/5h[4:1],,,,,,6,4,5,,B2,,5,,
{16}3xh[4:1]/5xh[4:1],,,,,,4,,3>1[8:1],5,4,,C,,,,,,
{16}2h[4:1]/4h[4:1],,,,,,3,5,4,,B7,,4,,
{16}6xh[4:1]/4xh[4:1],,,,,,5,,6<8[8:1],4,5,,C,,,,,,
{16}1h[4:1]/2>5[16:3],,,,,,,,6,5,7p2[16:3],,,,7/1h[4:1],,
{16},,,,28,,2/8h[8:3],,E3,E4,E5,,,,,,
{16}8h[4:1]/7<4[16:3],,,,,,,,3,4,
{4}2>5[8:1],2bx/5<8[8:1],5bx/8>3[8:1],8bx/3q1[4:1],3bx/6h[4:1],
{8},4h[4:1],2,5h[4:1],2,4h[8:3],3,2,1pp4[8:3],,1x/7x,6,5,B7,B2/B5,,
{8}3,5h[4:1],7,4h[4:1],7,5h[4:1],7pp2[8:3],7,6xh[4:1],,,5<7[8:1],4,3>1[8:1],,5,
{8},5h[4:1],2,4h[4:1],2,5h[8:3],3,2,1>4[8:1],,5,6,7<1[4:1],,4h[4:1],,
{8},8,61,2,83,6<7-1[8:1],,2,3,4>3-1v2[4:1],6,5,,
{16}7x,6x,5x,,B2,,B5,,
{8}6h[4:1],8,5h[4:1],8,6h[8:3],5,4,3pp6[8:3],,3x/1x,8,7,B1,B7/B4,,
{8}6,4h[4:1],2,5h[4:1],2,4h[4:1],2qq7[8:3],2,3xh[4:1],,,4>2[8:1],5,6<8[8:1],,4,
{8},4h[4:1],7,5h[4:1],7,4h[8:3],6,7,8<5[8:1],,4,3,2>8[4:1],,5h[4:1],,
{8},3,25,6,47,2>3-5[8:1],,6,7,8<7-5v6[4:1],2,1,,
{16}2x,3x,4x,,B7,,B4,,
{8}3h[2:1]/7,6,5,4,,,2h[8:1],,6h[2:1]/2,3,4,5,,,7h[8:1],,
{8}7/3h[8:3],,6,5h[8:3],,,4-7[8:1],,8-3[8:1],,5,6,,2,6,,
{8}7h[2:1],6,5,4,3h[2:1],2,1,8,7^4[8:1],,2^7[8:1],2,,,5^2[8:1],,
{8}8p6[8:3],,,,,2,3,48,2b/6b,,37,1bqq2[4:1]/5bqq6[4:1],,,,,
{8}7-5[8:1],4,7-3[8:1],1,7-5[8:1],4,7-3[8:1],1,7^5[8:1],4,7,1,
{16}2-8[8:1]/6-4[8:1],37,48,,,,
{8},1q5[8:1]/5q1[8:1],,1x/5x,,8p4[8:1]/4p8[8:1],,4x/8x,,
{8}1-5[8:1]/3-7[8:1],,1x/3x,,8-4[8:1]/6-2[8:1],,8b/6b,,
{8}2-4[8:1],5,2-6[8:1],8,2-4[8:1],5,2-6[8:1],8,2^4[8:1],5,2,8,
{16}7-1[8:1]/3-5[8:1],62,51,,,,
{8},8^5[8:1]/4^1[8:1],,8x/4x,,1^4[8:1]/5^8[8:1],,5x/1x,,
{8}7v4[8:1]/5-2[8:1],,7x/5x,,2v5[8:1]/4-7[8:1],,2b/4b,,
{8}8-6[8:1],5,8-4[8:1],2,8-6[8:1],5,8-4[8:1],2,8^6[8:1],5,8,2,
{16}2-8[8:1]/6-4[8:1],37,48,,,,
{8},1V35[8:1]/5V71[8:1],,1x/5x,,8V64[8:1]/4V28[8:1],,4x/8x,,
{8}1qq7[8:1]/3^6[8:1],,1x/3x,,8pp2[8:1]/6^3[8:1],,8b/6b,,
{8}1-3[8:1],4,1-5[8:1],7,1-3[8:1],4,1-5[8:1],7,1^3[8:1],4,1,7,
{16}7-1[8:1]/3-5[8:1],62,51,,,,
{8},1-6[8:1]/5-2[8:1],,1x/5x,,8-3[8:1]/4-7[8:1],,8x/4x,,
{8}7-4[8:1]/5-2[8:1],,7x/5x,,2q5<3[1:1]/4,,2b/4bh[1:1],,{1},
{16}6,5,7,,1,,28,,3,4,2,,8,,17,,
{16}7,5,8,,2,,13,,2,4,1,,7,,86,,
{16}7,8,6,,4,,35,,2,1,3,,5,,46,,
{16}7,1,5,,3,,42,,2,8,4,,6,,57,,
{16}6,4,8,,2,,13,,3,5,1,,7,,86,,
{16}7,5,7,5,6,4,6,4,5,3,5,3,4,,1,,2,4,2,4,3,5,3,5,4,6,4,6,5,,7,,
{16}8h[4:1]/7<4[16:3],,,,,,,,3,4,2q7[16:3],,,,2/8h[4:1],,
{16},,,,71,,7/1h[8:3],,E7,E6,E5,,,,,,
{16}1h[4:1]/2>5[16:3],,,,,,,,6,5,
{4}7<4[8:1],7b/4>1[8:1],4b/1<6[8:1],1b/6^3[8:1],
{4}6b/3-8[8:1],3b/8-5[8:1],8b/5-2[8:1],5b/2-7[8:1],
{4}2b/7-5^4[8:1],7b/4-2^1[8:1],4b/1-7^6[8:1],1b/6-4^3[8:1],6b/3,
{8}2,35,7,64,{16}3,4,3,5,4,6,4,7-3[1:2],
