&title=BANG!
&artist=Shoichiro Hirata feat. Sana
&first=0
&des=Hermit
&lv_6=13
&inote_5=
&inote_6=(128)
{1},
{8},,,,,B7/B6/E7/B2/B3/E3/Ch[8:7],,,,,,,,,
18,36,
{24}
24,,,3,,,56,,,7,,,8/2-5[8:1],,3,4,,,12,,,6,,,
78,,,1,,,78,,,6q2[6:1],,,3/5,,,4,,,4w8[8:1],,,,,,,,,,,,
26,,,35,,,1/2,,B3,B4,,,8/7,,B6,B5,,,
1xh[8:1],,,,,,
{16}
65,,4,,3-6[8:1],4,2,4,3,,,,
{24}
75,,,6,,,43,,,2,,,1/7-4[8:1],,6,5,,,87,,,3,,,
21,,,8,,,21,,,3,,,7/4,,,6,,,3^6[6:1]/5,,,,,,
7^2[6:1],,,,,,4-1[8:1],,,,,,8-5[8:1],,,,,,2x,,,,,,
E2,B1,B8,E8,,,E6,B5,B4,E4,,,
E2,B1,B8,6x/E8,,,E6,B5,B4,2x/E4,,,
1^4[8:1],,,,,,1qq5[8:4],,,,,,
4x,,,,,3x,,,,2xh[1:1],,,,,,,,,,,,
B2/B3/E3,,,,,B6/B7/E7,,,,,,,8,,,
7^4[8:1],,,,,,7p4[8:4],,,,,,
5x,,,,,6x,,,,7xh[24:17],,,,,,,,,,,,
B6/B5/E6,,,,,B2/B1/E2,,,,1x,,,2,,,
83,,,7,,,61,,,2,,,8-4[8:1]/3,,,2,,7,8,,,6,,,
53,,,2,,,64,,,2,,,18,,3,4,,,1-5[8:1]/2,,,7,,2,1,,,
3,,,64,,,7,,,82,,,6,,1,8,,,2h[8:4],,,,,
3x,,,,4>6[8:4],,,5,,,6,,,,,,,,,,,,
Cf,,,,,,
1h[8:13],,,,,,6x,,,,,5x,,,,4x,,,
,,,,,,,,,B4/B3,,,,,B6/B7,,,,,,,8,,,
8h[8:7],,,,,,6,,,,,,B1/E2,,,,,E3,,,,E4/B4,,,,,4xh[24:10],,,,E8,,,E7/B6/B7,,,E6,,,,,,,,,,,,
6,,,,,,7/B3,B4,,,,,6,,,,,7x/B3,B4,,,
{24}
7h[8:8],,,,,
,,,,,,,B6/B5,,,,,B3/B4,,,,,,,1,,,
{24}
1,,,,,,2/B6,B5,,,,,3,,,,,2x/B6,B5,,,
{24}
2h[8:5],,,,,
1x,,,,E8/B8,,,E7,,,E6/B5,,,,,,4,,4,5,,5,
4b,,,3,,,24,,,1,,,6/8h[4:1],,,7,6,5,4,,,1,,,
2-6[8:1],,,1,,,7,,,8,,,1-5[8:1],,,4,,,3,,,2,,,
1^4[8:1],,,1,,,6,,,6^1[8:1],,,15,,,2,3,4,5,,,5,,,
4/6h[8:1],,,2,,,7/5h[8:1],,,8,,,
5^8[8:1],,,5^2[8:1],,,,,,,,,
7x^4[8:1],,,7,,,8,,,1,,,2h[4:1],,,8,7,6,5,,,1,,,
2-5[8:1],,,2,,,7-2[8:1],,,7,,,4-8[8:1],,,4,,,6^1[8:1],,,6,,,
2^5[8:1],,,2,,,7,,,7,,,B4,B3,E3,6xh[8:1],,,B1,C,B5,7xh[8:1],,,
4x,3,2,8,7,6,3,2,1,7,6,5,
3x,2,1,8,7,6,4,3,2,7,6,5,1bp8[8:6],,,,,,
E6,,,,,,E3,,,,,C,,,,E7,,,
,,,,,,,,,C,,,,,B3/B2/B6/B7/C,,,,,,C,,,,
Ch[8:6],,,,,,,,,,,,,,,,,,,,,,,,
E1,,,E7/B7/B6,,,E3/B2/B3,,,E5,,,
1-5[8:1],,,28,,,1,,,,,,
4,,,,,,4/E8,B7,,,,,4,,,,,E8,
B7/4x,,,4,,,4h[24:9],,,,,,,,,C,,,,,B3/B2/B6/B7/C,,,,
,,,C,,,
2/4,,,,,3,5,,,46,,,
7/5,,,,,6,4,,,53,,,
81,,,72,,,8z4[8:1]/1s5[8:1],,,,,,,,,,,,26,,,1,,,
{32}
17,2,3,4,,,,,1/7,2,3,4,,,,,1>5[16:2]*>5[16:2]/7,2,3<7[16:3],4,,,,,
{24}
3xh[8:1],,,,,,
2,,6,5,,,7-3[8:1]/1,,,8,,,7^2[8:1],,,2^7[8:1],,,4h[8:1],,,,,,
3,,,2,,,16,,,2,,,3/5-1[8:1],,,6,,6,5,,,7,,,
1x^3[12:1]/4pp1[4:1],,,,,,1,,,,,,3b,,,,,,
46,,,7,,,
{32}
82,7,6,5,,,,,8/2,7,6,5,,,,,8<4[16:2]/2,7,6>2[16:3]*>2[16:3],5,,,,,
{24}
6xh[8:1],,,,,,
7,,3,4,,,2-6[8:1]/8,,,1,,,2^7[8:1],,,7^2[8:1],,,5h[8:1],,,,,,
6-8[12:1],,,53,,4,6,,,3,,,1-5[8:1]/2-6[8:1],,,38,,,12,,,,,,
7,,7,8,,,1-5[8:1]/6-8[12:1],,,25,,,1b/6b,,,,,,
46,,,3,,,
{32}
28,3,4,5,,,,,2/8,3,4,5,,,,,2>6[8:1]*>6[8:1]/8,3<7[8:1],4<8[8:1]*<8[8:1],5<1[8:1],,,,,2xh[8:1],,,,,,,,
{24}
3,,6,5,,,7-3[8:1]/1,,,8,,,7^4[8:1],,,4V68[8:1],,,2h[8:1],,,,,,
3,,,24,,3,5-1[8:1],,,46,,,2-6[8:1],,,3,,,8V61[4:1],,,7,,,1-5[8:1],,,5,,,4w8[8:1],,,3,,,4b,,,,,,
53,,,6,,,
{32}
71,6,5,4,,,,,7/1,6,5,4,,,,,7<3[8:1]/1,6>2[8:1]*>2[8:1],5>1[8:1],4>8[8:1]*>8[8:1],,,,,7xh[8:1],,,,,,,,
{24}
6,,3,4,,,2-6[8:1]/8,,,1,,,2^5[8:1],,,5V31[8:1],,,7h[8:1],,,,,,
8-4[8:1],,,,,3,8,,,1,,,2-6[8:1]*-5[8:1],,,3,,,2b,,,,,,
7b,,7,5,,5,6h[8:1],,,1b,,1,5,,5,3h[8:1],,,4bw8[8:1],,,,,,4,,,,,,
26,,,3,,,7/4-8[8:1],,6,5,,,34,,,2,,,17,,,6,,,28,,,6,,,2-6[8:1]/4,,1,8,,,26,,,5,,,34,,,81,2,3,4,,,56,,,
8-4[8:1]/2,,,7,,,8/6-1[8:1],,,5,,,6/2-6[8:1],,,3,,,82,,,7,,,
{16}
4,4,5,5,4h[4:1],,8,,
7<2[8:5],,,,,,,,,,,,,,,,
6^3[8:5],,,,,,,,,,,,,,,,
{16}
71,,,4,5-1[8:1],,6,,
{24}
4-8[8:1],,,3,,,6V82[6:1],,,,,,
3V17[6:1],,,,,,5h[8:5],,,,,,
B7,,,B8,,,B1,,,B2,,,
E
