&title=Star-mine
&artist=初星学園; じん; Begrazia; 花海佑芽; 秦谷美鈴; 十王星南
&first=0.05
&des=thiuram
&lv_5=13
&inote_5=(197)
{1},,,,,
{8}5p4[8:8],,,,,,,,
{8}4>5[8:8],,,,,,,,
{8}4q5[8:8],,,,,,,,
{8}5<4[8:8],,,,,,,,
{8}5pp4[8:8],,,,,,,,
{8}4-2-8-6[8:8],,,,,,,,
{8}4qq5[8:8],,,,,,,,
{8}5z1[8:3],,,,,,,,
{8}5V74[8:2],,4,3,2-5[8:1],,1,1,
{8},2,2,,5-1[8:1],5,,,
{8}4V25[8:2],,5,6,7-4[8:1],,8,8,
{8},7,7,,4-8[8:1],4,,,
{8}1<6[8:1],,2,3,4v6[8:1],,7,7-1[8:1],
{8},2,2-6[8:1],,5,5>2[8:1],,,
{8}8>3[8:1],,7,6,5v3[8:1],,2,2-8[8:1],
{8},7,7-3[8:1],,4,4<7b[8:1],,,
{16}1,,,2,8,,1h[8:2],,,,5,,5,,,,
{16}4,,,5,3,,4h[8:2],,,,2,,2,,,,
{16}7,,,5,6,,4-1[8:1],,,,7,,7,,,,
{16}2,,,4,3,,5-8[8:1],,,,2,,2,,,,
{16}7/4,,,6,5,,8h[8:2],,,,1,,2,,,,
{16}3/8,,,2,1,,4h[8:2],,,,5,,6,,,,
{16}5/4,,,4,3,,5pp4[8:3],,,,3,,2,,2,,
{8}1-4[8:1],,7-2[8:1],,3-6[8:1],,8-4[8:1],,
{8}Cf/8xqq1[8:4],,,2,,,3-8[8:1],,
{8}3qq4[8:4],,,6,,,7-4[8:1],,
{8}7qq1[8:4]/4,,,3,,,3qq4[8:4],,
{8}5,5,,6,6<2[8:2],,,,
{8}5-3[8:1],,,8<4[8:2],,,3,,
{8}1-7[8:1],,,4<8[8:2],,,2,1,
{8}3,3,4,2,6,6,5,7,
{8}1,1,8,8,2/7,3/6,{16}4-1b[8:1],5,4,5,
{8}4,,,,,,,,
{8}1-4[8:11],,,,,,,,
{8}8-5[8:11],,,,,,,,
{8}1-4b[8:3],,,,,,,,
{8}7b<4[8:1]/3b,,,1b-6[8:1],,,2b-5[8:1],,
{8},7b-3[8:1],,,5b-1[8:1],,5bx/8bx,,
{8}8/2,3,4,7/1,6,5,8/3,4,
{8}5,6/1,5,6b-1[8:1]/4b-1[8:1],,6b/4b,,,
{8}2v5[8:1],,4-8[8:1],,1,2,3,,
{8}4-8[8:1],,1v6[8:1],,5,4,3,,
{8}2v7[8:1],,5-1[8:1],,2,3,4,,
{8}5-1[8:1],,6v3[8:1],,2,1,8,,
{8}7V13[8:2],,3pp1[8:3],,,,,,
{8}5-8[8:1]*-2[8:1],,5,,1w5[8:1],,1,,
{8}7pp2[8:5]/3pp6[8:5],,,,,,,,
{8}5,5,4,4,5,{16}4x,5x,6x,7x,8x,1x,
{8}2x-5[8:1],,2,,7-4[8:1],,7,,
{8}1pp1[8:2],,8,,5-8[8:1],,5,,
{8}2-5[8:1],2,6,6,7-4[8:1],7,1,1,
{8}1-4[8:1],,1b/5<8[8:1],,,,5,4,
{8}3-1[8:1],,3/7-5[8:1],,8-4[8:1],,8,,
{8}6<1[8:1],,2/6,,3>8[8:1],,7/3,,
{8}6,6,7,2,5/3,5/3,2,1,
{8}7b/3,6,7b/2,6,7b/1,{16}2,8,2,8,2,8,
{8}2b-5[8:1],,7-3[8:1],,8-5[8:1],1,2,,
{8}3-5[8:1],,7-4[8:1],,8-3[8:1],1,2,,
{8}1x-6[8:1],,4-8[8:1],,3-6[8:1],2,1,,
{8}8-6[8:1],,4-7[8:1],,8-4[8:1],1,2,,
{8}7V13[8:2],,3pp1[8:3],,,,,,
{8}5-3[8:1]*-2[8:1],,5-8[8:1]*-7[8:1],,5w1[8:1],,5,,
{8}7pp6[8:4]/3pp2[8:4],,,,,,,,
{8}5,5,4,4,6/3,2/7,8-5[8:1]/1-4[8:1],,
{8},,6<2[8:2],,2<6[8:2],,3,,
{8}4,,3>7[8:2]/6,,7>3[8:2],,6,,
{8}4q1[8:2],,1>5[8:2],,5p8[8:2],,8<4[8:2],,
{8},1x,1x,,1w5[8:1],,1b,,
{8}2-6[8:1],,2/1,,7-4[8:1],,7/8,,
{8}1-5[8:1],,1/6,,8-4[8:1],1,8b/2b,,
{8}3-1[8:1],,5,,3-8[8:1],,5,,
{8}3-7[8:1],,5<4b[8:2],,Cf,,,,
{8}1bh[8:8],,,,,,,,
{8}5h[8:2],,1-5[8:1],,5w1b[8:1],,Cf,,
{8}7h[8:2]/3,,8-6[8:1],,3/8,,1qq6[8:4],,
{8}1/2,,3,,4qq2[8:1],,4,,
{8}5h[8:2],,1-3[8:1],,7/1,,5qq2[8:4],,
{8}5/6,,7,,8q5[8:1]*p3[8:1],,8,,
{8}6h[8:2],,1-6[8:1],,1/3,,4pp7[8:4],,
{8}4/3,,2,,1h[8:2],,{16},8x,7x,6x,
{8}5xb/2h[8:2],,8-3[8:1],,6/8,,8pp5[8:4],,
{8}8/4,,3,,4w8[8:1],,4b,,
{8}6-1[8:1],6,5,4,3-8[8:1],3,4,5,
{8}7-4[8:1],7,3,1,2-5[8:1],2,6,8,
{8}1q5[8:1],1,8,7,6q2[8:1],6,5,4,
{8}3p7[8:1],3,4,5,6p2[8:1],6,7,8,
{8}1V37[8:2],1,4x,5,6V48[8:2],6,4x,3,
{8}2V41[8:2],2,5x,6,7V58[8:2],7,4x,3,
{8}2,2,7/1,7/1,6,6,8/2,8/2,
{8}7/4,7/4,6/3,6/3,5/2,5/2,{32}4x,3x,2x,1x,8x,7x,6x,5x,
{8}4xb/Cf,,,2xb/E8f,,,8xb/B3f,,
{8},1xb/B6f,,,2xb-6b[8:1],,7bx,,
{8}5xb/Cf,,,7xb/E2f,,,1xb/B6f,,
{8},8xb/B3f,,,7xb-3b[8:1],,2bx,,
{8}1xb/Cf,,,3xb/E6f,,,5xb/B2f,,
{8},4xb/B7f,,,3xb-7b[8:1],,6bx,,
{16}8xb/1xb,7x,6x,5x,4x,,1xb/2xb,8x,7x,6x,5x,,2xb/3xb,,2xb/3xb<2[8:12],,
{8},,,,,,,,
{8},,,,,5xh[8:7],,,
{8}4x,3x,2x,1xh[8:3],,6x,7x,,
{8}8x,,,8x,,,,1x-5[8:18],
{8},,,,,,{16}4x,3x,2x<3[8:20],
&inote_7={1},,,,,
{8}1,,,,,,,,
{8}1,,,,,,,,
{8}1,,,,,,,,
{8}1,,,,,,,,
{8}1,,,,,,,,
{8}1,,,,,,,,
{8}1,,,,,,,,
{8}1,,,,,,,,
{8}5V74[8:2],,4,3,2-5[8:1],,1,1,
{8},2,2,,5-1[8:1],5,,,
{8}4V25[8:2],,5,6,7-4[8:1],,8,8,
{8},7,7,,4-8[8:1],4,,,
{8}1<6[8:1],,2,3,4v6[8:1],,7,7-1[8:1],
{8},2,2-6[8:1],,5,5>2[8:1],,,
{8}8>3[8:1],,7,6,5v3[8:1],,2,2-8[8:1],
{8},7,7-3[8:1],,4,4<7b[8:1],,,
{16}1,,,2,8,,1h[8:2],,,,5,,5,,,,
{16}4,,,5,3,,4h[8:2],,,,2,,2,,,,
{16}7,,,5,6,,4-1[8:1],,,,7,,7,,,,
{16}2,,,4,3,,5-8[8:1],,,,2,,2,,,,
{16}7/4,,,6,5,,8h[8:2],,,,1,,2,,,,
{16}3/8,,,2,1,,4h[8:2],,,,5,,6,,,,
{16}5/4,,,4,3,,5pp4[8:3],,,,3,,2,,2,,
{8}1-4[8:1],,7-2[8:1],,3-6[8:1],,8-4[8:1],,
{8}Cf/8xqq1[8:4],,,2,,,3-8[8:1],,
{8}3qq4[8:4],,,6,,,7-4[8:1],,
{8}7qq1[8:4]/4,,,3,,,3qq4[8:4],,
{8}5,5,,6,6<2[8:2],,,,
{8}5-3[8:1],,,8<4[8:2],,,3,,
{8}1-7[8:1],,,4<8[8:2],,,2,,
{8}3,3,4,2,6,6,5,7,
{8}1,1,8,8,2/7,3/6,{16}4-1b[8:1],5,4,5,
{8}4,,,,,,,,
{8}1-4[8:11],,,,,,,,
{8}8-5[8:11],,,,,,,,
{8}1-4b[8:3],,,,,,,,
{8}7b<4[8:1]/3b,,,1b-6[8:1],,,2b-5[8:1],,
{8},7b-3[8:1],,,5b-1[8:1],,5b/8b,,
{8}8/2,3,4,7/1,6,5,8/3,4,
{8}5,6/1,5,6b-1[8:1]/4b-1[8:1],,6b/4b,,,
{8}2v5[8:1],,4-8[8:1],,1,2,3,,
{8}4-8[8:1],,1v6[8:1],,5,4,3,,
{8}2v7[8:1],,5-1[8:1],,2,3,4,,
{8}5-1[8:1],,6v3[8:1],,2,1,8,,
{8}7V13[8:2],,3pp1[8:3],,,,,,
{8}5-8[8:1]*-2[8:1],,5,,1w5[8:1],,1,,
{8}7pp2[8:5]/3pp6[8:5],,,,,,,,
{8}5,5,4,4,5,{16}4x,5x,6x,7x,8x,1x,
{8}2x-5[8:1],,2,,7-4[8:1],,7,,
{8}1pp1[8:2],,8,,5-8[8:1],,5,,
{8}2-5[8:1],2,6,6,7-4[8:1],7,1,1,
{8}1-4[8:1],,1b/5<8[8:1],,,,5,4,
{8}3-1[8:1],,3/7-5[8:1],,8-4[8:1],,8,,
{8}6<1[8:1],,2/6,,3>8[8:1],,7/3,,
{8}6,6,7,2,5/3,5/3,2,1,
{8}7b/3,6,7b/2,6,7b/1,{16}2,8,2,8,2,8,
{8}2b-5[8:1],,7-3[8:1],,8-5[8:1],1,2,,
{8}3-5[8:1],,7-4[8:1],,8-3[8:1],1,2,,
{8}1x-6[8:1],,4-8[8:1],,3-6[8:1],2,1,,
{8}8-6[8:1],,4-7[8:1],,8-4[8:1],1,2,,
{8}7V13[8:2],,3pp1[8:3],,,,,,
{8}5-3[8:1]*-2[8:1],,5-8[8:1]*-7[8:1],,5w1[8:1],,5,,
{8}7pp6[8:4]/3pp2[8:4],,,,,,,,
{8}5,5,4,4,6/3,2/7,8-5[8:1]/1-4[8:1],,
{8},,6<2[8:2],,2<6[8:2],,3,,
{8}4,,3>7[8:2]/6,,7>3[8:2],,6,,
{8}4q1[8:2],,1>5[8:2],,5p8[8:2],,8<4[8:2],,
{8},1x,1x,,1w5[8:1],,1b,,
{8}2-6[8:1],,2/1,,7-4[8:1],,7/8,,
{8}1-5[8:1],,1/6,,8pp4[8:4],1,8b/2b,
