&title=Nijirate Fanatics
&artist=yukitani
&first=0
&des=虹レートのWさん
&lv_5=13
&lv_7=?-☆3
&inote_5=(210)
{1},
{8}6h[8:1],5,3h[8:1],4,6h[8:1],5,3h[8:1],4,6h[8:1],5,3h[8:1],4,6h[8:1],5,3h[8:1],4,6h[8:1],5,3h[8:1],4,6h[8:1],5,3h[8:1],4,6h[8:1],5,3h[8:1],4,6h[8:1],5,3h[8:1],4,
{16}6,5,4,3,2,1,8,7,63,4,5,6,7,8,1,2,36,5,4,3,2,1,8,7,63,4,5,6,7,8,1,2,36,5,4,3,2,1,8,7,63,4,5,6,7,8,1,2,
{4}6b/3b,,,,4h[2:1]/8h[2:1],,,,
{16}2V83[2:1],3,5,6V85[8:3],,,,,,,,,,,,,
{16}4,6,4,,5,3,5,,1-5[8:1]/8-4[8:1],,27,,1b/8b,,,,
{8}3^1[8:1]/6,,4,4-1[8:1],,5,5,,6^8[8:1],,5,5-8[8:1],,4,4,,3-1[8:1]/6,,4,4v1[8:1],,5,5,,6-1[8:1],5-2[8:1],6,5,,8,8,,3^8[8:1]/6,,4,4p8[8:1],,5,5,,6^1[8:1],,5,5q1[8:1],,4,4,,3-8[8:1]/6,,4,4q8[8:1],,5,5,,3b/6b,,,,,,,,
{16}3h[32:1],4h[32:1],6h[32:1],5h[32:1],3h[32:1],4h[32:1],6h[32:1],5h[32:1],3h[32:1],4h[32:1],6h[32:1],5h[32:1],3h[32:1],4h[32:1],6h[32:1],5h[32:1],
{16}3h[32:1],4h[32:1],6h[32:1],5h[32:1],3h[32:1],4h[32:1],6h[32:1],5h[32:1],3h[32:1],4h[32:1],6h[32:1],5h[32:1],,,,,
{16}25,,3,4,3,,18,,6,,7/5,,3,,42,,
{8}1/8,,56,7,56,4,56,,{16}2,4,2,4,{8}2h[4:1],4,5h[4:1],3,2,,{8}8/1,,43,2,43,5,43,,{16}7,5,7,5,{8}7h[4:1],5,4h[4:1],6,7,,{8}1/8,,45,3,45,6,45,,{16}1,8,1,8,{8}1h[4:1],7,5h[4:1],3,1,,{8}1/8,,45,6,45,3,45,,1b-3[8:1]/8bv3[8:1],,1bv6[8:1]/8b-6[8:1],,1bp4[8:1]/8bq5[8:1],,1b/8b,,
{16}3,4,3,,6,,2,,8h[4:1],,1,,2h[4:1],,1,,7,,3,5,3,,6,5,6,,1^4[8:1],,8,,1,,
{16}6,5,6,,3,,7,,1h[4:1],,8,,7h[4:1],,8,,2,,6,4,6,,3,4,3,,8^5[8:1],,1,,8,,
{16}3,4,3,,5,,2,,6,5,6,,4,,7,,
(190)
{16}4h[4:1],,5,,6,,7,,8h[4:1],,1,,2,,3,,
(170)
{8}46,6,35,3,47,7,25,2,
(160)
{16}7h[8:1],,5h[8:1],,3h[8:1],,1h[8:1],,8,8,7,7,6,6,5,5,
(155)
{4}4-8[2:1],3,2,1,8-4[2:1],7,6,5,
{8}4,5,3,6,4,5,2,7,
{16}1,2,8,7,2,3,7,6,3,4,6,5,4/8h[4:1],,,,5b-1[8:1],,
{8},5/2-5[8:1],3,2/8-4[8:1],,7-3[8:1]/8,6,7/1-5[8:1],,12,,
{16}2v5[8:1],,6-1[8:1],,2,,6,,
4b-8[8:1],,
{8},4/7-4[8:1],6,7/1-5[8:1],,2-6[8:1]/1,3,2/8-4[8:1],,87,,
{16}7v4[8:1],,3-8[8:1],,7,,3,,
5b^8[8:1],,
{8},5/2v7[8:1],3,2/1^4[8:1],,5v2[8:1]/1,6,8p3[8:1]/5,,87,,
{16}2-5[8:1],,6^1[8:1],,2,,6,,
4b^1[8:1],,
{8},4/7v2[8:1],6,7/8^5[8:1],,4v7[8:1]/8,3,1q6[8:1]/4,,12,,
{16}18,,72,,45,,36,,
{16}6b^1[8:1],,5,,4,,3,,2,1,2,1,2,,5,4,
{16}6b-8[8:1],3,5,4,6,,2,,12,,2,,82,,2,,
{16}3b^8[8:1],,4,,5,,6,,7,8,7,8,7,,4,5,
{16}3b-1[8:1],6,4,5,3,,7,,87,,7,,17,,7,,
2h[4:1],,,,4h[4:1],,,,6h[4:1],,,,8h[4:1],,,,
3^6[8:1],,3,,8-5[8:1],,8,,1-4[8:1],,1,,6,,6,,
3,5,3,5,4,6,4,6,1,7,1,7,2,8,2,8,
3,5,7,3,1,6,4,2,6,,,,
{8}1/5h[8:8],,{4}4,6,3,7,1b,63,
{16}4h[8:1]/5h[8:1],,,,,,,,36,,4,5,4,,1w5[8:1],,,,,,,,,,{32}8b/1b,7b/2b,6b/3b,5b/4b,{16},,,,,,,,,,
{2}2v5[2:1]*^7[2:1]/6h[8:1],,,1-4[2:1],,{4},
{16}6,5,6,5,6,5,6,5,6,5,6,5,6,5,6,5,6,5,6,5,6,5,6,5,6,5,6,5,6,5,6,5,6,5,6,5,6,5,6,5,
{1}4bV62[2:1]/7b^2[2:1],
{8}6/4,4>8[4:1]*>2[8:1]*>1[16:3],,8<4[4:1]*<6[8:1]*<5[16:3],,4>8[4:1]*>2[8:1]*>1[16:3],,8<4[4:1]*<6[8:1]*<5[16:3],,4>8[4:1]*>2[8:1]*>1[16:3]*>7[16:5]*>6[16:6]*>5[16:7]*>4[16:8],,8<4[4:1]*<6[8:1]*<5[16:3]*<3[16:5]*<2[16:6]*<1[16:7]*<8[16:8],,
{8}4>8[4:1]*>2[8:1]*>1[16:3]*>7[16:5]*>6[16:6]*>5[16:7]*>4[16:8],,8<4[4:1]*<6[8:1]*<5[16:3]*<3[16:5]*<2[16:6]*<1[16:7]*<8[16:8],,4>8[4:1]*>2[8:1]*>1[16:3]*>7[16:5]*>6[16:6]*>5[16:7]*>4[16:8],,8<4[4:1]*<6[8:1]*<5[16:3]*<3[16:5]*<2[16:6]*<1[16:7]*<8[16:8],,4>8[4:1]*>2[8:1]*>1[16:3],,8,,
{8}6pp7[2:1]*qq5[2:1],,,,,,,,,,,,1-5[21#48:2]/8h[4:8],,
{16}2h[8:9],,,,,,,,,,,,,,,,,,
{8},,,,,,,,
(175)
{4}1^6[2:1],2,3,4,
(190)
{4}5^2[2:1],6,7,8,
(210)
{8}12,12,38,38,47,47,56,56,
{32}1,2,3,4,5,6,7,8,
{32}1,2,3,4,5,6,7,8,1-5[8:1],,,,,,,,
{4}1b,
{16}3,4,3,2,3-1[8:1],,3-5[8:1],,3-7[8:1],,,,,,,,6,5,6,5,7h[8:1],,3,,1-5[8:1],,28,,1,,,,
{16}6,5,6,7,6-8[8:1],,6-4[8:1],,6-2[8:1],,,,,,,,3,4,6,5,2,3,7,6,1,2,8,7,2,3,,,
{16}4/6h[4:1],,,,1-5[8:1],,8-4[8:1],,1-3[8:1],,8,,1,,,,5,4,5,4,7h[8:1],,3,,8-4[8:1],,17,,8,,,,
{16}5/3h[4:1],,,,8-6[8:1],,1-5[8:1],,8-4[8:1],,1,,8,,,,1,2,8,7,2,3,7,6,3,4,6,5,2,3,,,
{16}1b/8b,,3,4,3,,6,5,6,4,6,3,6,2,6,,3,4,3,2,3,,6,5,6,7,6,,18,,7h[16:1],,3,4,2,,2,,6,5,
{16}7,,7,,1,,8h[16:1],,2,6,3,5,4,,7,8,7,,61,,25,,3h[16:1],,5,,
{16}2,1,3,,7,8,6,,4,5,4,,62,,3,5,3,1,3,,48,,6,4,6,8,6,,5h[16:1]/2h[16:1],,
{16}3,4,3,4,2,5,2,5,1,6,1,6,8,7,8,7,8b/6b,,,,1b,1b,1b,1b,1b,1b,1b,1b,1b,1b,1b,,
{16}2h[4:1],,,,6,,6,,4,,4,,5,,5,,{24}2bv5[8:1]/8bv5[8:1],,,,,,2b/8b,,,,,,7bv4[8:1]/1bv4[8:1],,,,,,7b/1b,,,,,,
{16}7h[4:1],,,,3,,3,,5,,5,,4,,4,,7^4[8:1],,7,,8v3[8:1],,8,,7^4[8:1],,7,,8b,,,,
{16}2,4,2,,8,,1,,7,5,7,,1,,8,,2,3,4,5,8,7,6,5,1,8,1,,27,,27,,
{16}3,2,4,,1/5,,1/5,,6,7,5,,4/8,,4/8,,
{16}7,,3,3,2,,6,6,{32}1,2,3,4,5,6,7,8,15,4,3,2,1,8,7,6,
{1}5bV73[2:1]/1bV37[2:1],,,,
&inote_7=(210)
{1},
{8}6h[4:1]/4,5,3h[4:1],4,6h[4:1],5,3h[4:1],4,6h[4:1],5,3h[4:1],4,6h[4:1],5,3h[4:1],4,6h[4:1],5,3h[4:1],4,6h[4:1],5,3h[4:1],4,6h[4:1],5,3h[4:1],4,6h[4:1],5,3h[4:1],4,6h[4:1],5,3h[4:1],4,6h[4:1],5,3h[4:1],4,6h[4:1],5,3h[4:1],4,6h[4:1],5,3h[4:1],4,6h[4:1],5,3h[4:1],4,6h[4:1],5,3h[4:1],4,
{4}4b/5b,,,,1h[2:1]/8h[2:1],,,,
{24}4,5,4,5,4,5,4,5,4,5,4,5,4,5,4,5,4,5,4,5,,,,,
{16}3,5,2,,6,4,7,,1/8,,1/8,,2b/7b,,,,
{4}3-7[8:1]/6,5,6-2[8:1]/3,4,3-7[8:1]/6,5,6-2[8:1]/3,4,3-7[8:1]/6,5,6-2[8:1]/3,4,3-7[8:1]/6,5,6-2[8:1]/3,4,3-7[8:1]/6,5,6-2[8:1]/3,4,3-7[8:1]/6,5,6-2[8:1]/3,4,3-7[8:1]/6,5,6-2[8:1]/3,4,3b/6b,,,,
{24}4,5,3,6,4,5,3,6,4,5,3,6,4,5,3,6,4,5,3,6,4,5,3,6,
{24}4,5,4,5,4,5,3,6,3,6,3,6,2,7,2,7,2,7,1,8,1,8,1,8,
{16}4/5,,1/8,2/7,3/6,,2/7,,5,,2/7,,4,,2/7,,
{8}1/8,6h[8:1]/5,,6/5h[8:1],,5h[8:1]/4,,5/4h[8:1],,4/3h[8:1],,4h[8:1]/3,,5h[8:1]/4,,4h[8:1]/5h[8:1],,2h[8:1]/1,,2/1h[8:1],,1h[8:1]/8,,1/8h[8:1],,8/7h[8:1],,8h[8:1]/7,,1h[8:1]/8,,4/5,
{8}3h[4:1],2,2h[4:1],6,6h[4:1],7,7h[4:1],1,1h[4:1],8,8h[4:1],5,5h[4:1],4,4h[4:1],,5,6,7,8,1,2,3,4,4b>2[8:1]/5b-2[8:1],,4b-7[8:1]/5b<7[8:1],,4b-8[8:1]/5b-1[8:1],,4b/5b,,
{16}4,5,3,,8,,1,,7h[4:1],,6,,2h[4:1],,3,,7,,3,4,3,,6,5,6,,1,,8,,1,,
{16}5,4,6,,1,,8,,2h[4:1],,3,,7h[4:1],,6,,2,,6,5,6,,3,4,3,,8,,1,,8,,
{16}2,4,3,,1,,1,,7,5,6,,8,,8,,
(190)
{16}1h[4:1],,2,,3,,2,,8h[4:1],,7,,6,,7,,
(170)
{8}1,3/7,1/5,3/7,2/6,4/8,2/6,4/8,
(160)
{16}3,2,1,8,7,6/3,2,1,8,7,6/3,2,1,8,7,6,
(155)
{4}5/4-8[1:1],,,,{8}5-1[1:1]*-1[1:1],,,,,
{16}4,,,4,,,{4}4<2[3:2]*<8[9:4]*<6[33:7],,,,
{16}6,6,6,3,4,5,6,3,3,3,6,5,4,3,4,5,6,,
{8}7/2,5,7/2,4,7/2,5,7/2,4,7/2,5,7/2,
{16}1/8,,8h[4:1]/1,,1,2,3,4,
{8}5,4/6,2,1/3,6,7/5,3,2/4,7,8/6,1,
{8}8/2-4[8:1],1,2/8-6[8:1],1,
{8}8/2-5[8:1],3,2/7-4[8:1],6,7/1-5[8:1],2,1/8-4[8:1],7,8/3-7[8:1],2,3/5-1[8:1],6,5/4,
{8}3>8[8:1],7<4[8:1],3,7,
{8}2-5[8:1],3,2/1,8,7-4[8:1],6,8/7,1,2-5[8:1],3,2/1,8,
{8}7/5,7/5,6/4,3/5,
{8}6h[4:1]/4h[4:1],,5h[4:1]/3h[8:3],,6h[4:1],4h[8:1],5h[4:1]/3h[4:1],,
{8}6h[4:1]/4h[4:1],,5h[4:1]/3h[8:3],,6h[8:3],4h[8:1],3h[4:1],5h[8:1],
{8}6h[4:1]/4h[4:1],,5h[4:1]/3h[4:1],,6h[8:1]/4h[8:1],5h[8:1]/3h[8:1],6h[8:1]/4h[8:1],5h[8:1]/3h[8:1],
{16}6h[4:1]/4h[8:1],,3h[8:5],,5h[4:1],,,,6h[16:1],5h[16:1],6h[16:1],5h[16:1],
{16}6h[4:1]/4h[4:1],,,,5h[8:1]/3h[16:5],,6h[16:1],5h[16:1],6h[4:1],
{16}4h[16:1],3h[16:1],4h[16:1],
{8}5h[8:1]/3h[8:1],6h[8:1]/4h[8:1],5h[8:1]/3h[8:1],6h[8:1]/4h[8:1],
{16}5h[8:1]/3h[4:1],,6h[16:1],5h[16:1],6h[4:1]/4h[8:1],,3h[16:1],4h[16:1],
{16}5h[16:1]/3h[16:1],6h[16:7]/4h[16:1],3h[16:1],4h[16:1],3h[8:3],,,,
{16}5h[16:1],6h[16:3],4h[16:1],3h[16:3],5h[16:1],6h[16:3],4h[16:1],3h[16:3],
{16}5h[16:1],6h[16:3],4h[16:1],3h[16:3],5h[16:1],6h[16:3],4h[16:1],3h[8:3],
{16}5h[8:1],,6h[16:1],5h[8:1],,6h[8:1]/4h[5:1],,,,,,,
{4}5h[1:1]/5?-8[31#64:1]*-8[31#64:1],,,,8b,5/5,,
{2}4h[4:1]/5h[4:1],,,{16}4h[4:1]/5h[16:5]/4b/5b,,,,,,4/4,,,,,,
{2}4h[6:1]/5h[6:1]/5?-8[8:1]/4?-1[8:1],,,,,{4},
{16}6,5,6,5,6,5,6,5,6,5,6,5,6,5,6,5,6,5,6,5,6,5,6,5,6,5,6,5,6,5,6,5,6,5,6,5,6,5,6,5,
{1}4b,
{8}4/5,4/5-2[8:1],,6/5-7[8:1],,4/5-3[8:1],,6/5-1[8:1],,5/4-7[8:1],,3/4-2[8:1],,
{8}5/4-8[8:1],,3/4>1[8:1],,4/5<8[8:1],,5/4>1[8:1],,4/5<8[8:1],,5/4w8[310#4:1],
{1}4,{2},{4},{8},
{1}1h[4:7]/8h[4:7]/1?-4[22.1428571429#64:1]/8?-5[22.1428571429#64:1],
{2},{4},{8},,,
(175)
{4}1,2,3,4,
(190)
{4}5,6,7,8,
(210)
{8}1,2,3,4,5,6,7,8,
{16}1,2,3,4,
{32}1,2,3,4,5,6,7,8,,,,,,,,,
{4}1b,
{16}3h[4:1]/8,7,6,5,3/4,,3/5,,3/6,,3/7,,3/8,,,,1,2,1,2,7h[4:1],,6,,3h[4:1],,4,,8,,,,
{16}6h[4:1]/1,2,3,4,6/5,,6/4,,6/3,,6/2,,6/1,,,,8,7,1,2,7,6,2,3,6,5,3,4,7,6,2,3,
{16}8/4,,,,1/5,,2,,8/4,,7,,3/6,,,,7,2,7,2,8-4[8:1],,1-5[8:1],,8,,1,,8,,,,
{16}1/5,,,,8/4,,7,,1/5,,2,,6/3,,,,6,5,4,5,3,4,5,4,6,5,4,5,6/3,,,,
{16}1b/8b,,3,4,3,,6,5,6,7,5,6,4,5,3,,2,3,4,3,2,,5,7,5,2,4,2,8,,1,,3,5,4,6,5,,4,,
{16}3,4,2h[8:1],,1h[8:1],,8h[8:1],,7,3,6,4,5,,2,3,,7,6,,1h[8:1],,3h[8:1],,5h[8:1],,
{16}7,8,6,,2,1,3,,1,2,3,4,6,5,7,6,8,2,8,2,,,2,3,4,2,3,4,5,,
{16}8,7,6,5,4,3,2,1/5,6,7,8,1,2,3,4,5,6b/2b,,,,7b/3b,,,,4b/8b-4[8:1],,,,4b/8b,,,,
{16}1,1,1,,3,,4,,8,,7,,5,,6,,{24}7h[8:1]/2b,3,4,5,,,2h[8:1]/7b,6,5,4,,,8h[8:1]/1b,2,3,4,5,,1h[8:1]/8b,7,6,5,4,,
{16}8,8,8,,6,,5,,1,,2,,4,,3,,5-8[8:1],,6,,4-1[8:1],,3,,5-8[8:1],,6,,4b,,,,
{16}3,4,3,,8,,1,,6,5,6,,1,,8,,3,3,4,4,5,5,6,6,1,1,8,,2/7,,3/6,,
{16}5,4,5,,3/6,,3/6,,2,7,2,,1/8,,1/8,,
{24}1,2,3,8,7,6,2,3,4,7,6,5,{32}1,2,3,4,5,6,7,8,1,2,3,4,5,6,7,8,
{1}1b/5b/1?-5[77.5#64:1]*-5[77.5#64:1],,,,E
