&title=双龍飛閃-Dual Dragoon-
&artist=Daisuke Ohnuma
&first=0
&des=Dororo
&lv_5=14+
&inote_5=(212)
{1},
{16}4-1[22.3#76:11],,,,,,,,,,,,,,,,
{16},,,,5-8[47.1#36:11]*-8[47.1#36:11],,,,,,,,,,,,
{16},,,,,,,,,,,,,,,,
{16},,,,,,,,,,,,,,,,
{24}1bp1[2:7]/8b,18,2/7q7[24:82],{16}36,,,,,,,,,,,,,,
{16},,,,,,,,,,,,,,,,
{16},,,,,,,,,,,,,,,,
{16},,,,,,,,,,,,,,,,
{16}34,,,45,,,24,,1^6[8:1],7,1h[4:1],,,,,,
{16}5,,4,6,,2,5,,4,7,,3,5,,4,,
{16}65,,,54,,,75,,8^3[8:1],2,8h[4:1],,,,,,
{16}4,,5,3,,7,4,,5,2,,6,{32}4,,1b,8b,{16}7b,,
{16}3,,,46,,,25,,1,7,1,,6,2,5,3,
{16}6h[8:1],,4h[16:1],7h[8:1],,4h[16:1],8h[8:1],,4h[16:1],1h[8:1],,4h[16:1],2,1,8,7,
{16}6,,,53,,,74,,8,2,8,,3,7,4,6,
{16}5h[8:1],,,3h[8:1]/4h[8:1],,,5h[8:1]/7h[8:1],,,1h[8:1]/4h[8:1],,,{24}2,3,4,8,7,6,
{16}1bpp4[2:1]/5bpp8[2:1],,,,,,,,,,,,,,,,
{12}3,5,4,8,6,7,2-6[8:1],4,3,{16}8b,,,,
{16}57,,7,4h[16:3],,,1,2,3,2,1,8,7,,5,,
{16}65,,,17,,,64,,7,,7,8,7,,7,,
{16}1h[8:1]/6h[8:1],,,1h[8:1]/5h[8:1],,,14,,2h[8:1]/7h[8:1],,,2h[8:1]/6h[8:1],,,25,,
{16}3h[8:1]/8h[8:1],,,3h[8:1]/7h[8:1],,,36,,1b/4w8[8:1],,,,,,,,
{16}42,,2,5h[16:3],,,8,7,6,7,8,1,2,,4,,
{16}34,,,82,,,35,,2,,2,1,2,,2,,
{16}3h[8:1]/8h[8:1],,,2h[8:1]/4h[8:1],,,78,,6h[8:1]/1h[8:1],,,7h[8:1]/5h[8:1],,,21,,
{12}3,5,4,6,2,4,1,7,4,{32}8b,7,6,5,4,3,2,1,
{16}48,,3,7h[16:3],,,5,6,4,5,3,4,2,,2,,
{16}41,,,32,,,85,,1,,1,7,1,,1,,
{16}6h[8:1]/2h[8:1],,,5h[8:1]/2h[8:1],,,42,,5h[8:1]/1h[8:1],,,4h[8:1]/1h[8:1],,,31,,
{16}4h[8:1]/8h[8:1],,,3h[8:1]/8h[8:1],,,28,,8b^3[8:1]/1b^6[8:1],,,,,,,,
{16}15,,6,2h[16:3],,,4,3,5,4,6,5,7,,7,,
{16}58,,,67,,,14,,8,2,7,3,6,4,5,,
{16}6h[8:1]/4h[16:1],,3h[16:3],8h[8:1],,,21,,3h[8:1]/5h[16:1],,6h[16:3],1h[8:1],,,78,,
{12}3b,5,1,7b,3,1,5b<3[4:1],7,3,{16}5b,,,,
{16}4-1[8:1]*-7[8:1],,,,4,,,,28,,28,,37,,37,,
{16}4/6^3[8:1],,46,,,,,,2,1,2,1,2,,8,,
{16}1b-5[8:1]/6-8[8:1],,1/6b,,1b/6,,,,1-5[8:1]/6b,,1b/6-8[8:1],,,,6b,,
{16}4h[16:1],,4h[8:1],,1,,2b,,4h[16:1],,4h[8:1],,2b,,2b,,
{16}5,,,,78,,5,,,,5,,78,,5,,
{16}2h[32:1],3h[32:1],6h[32:1],5h[32:1],2h[32:1],3h[32:1],6h[32:1],5h[32:1],2-7[8:1],3h[32:1],6-3[8:1],5h[32:1],,,,,
{16}8b,,,8b,,,8b,,57,,57,,34,,34,,
{16}2,6,1,6,8,6,7,6,5,6,4,6,{32}3,2,1,8,7,6,5,4,
{16}3/7-3[8:1],,,,1^6[8:1]*^4[8:1]/7,,,,1,,,,2-6[8:1],,2,,
{16}2/7-2[8:1],,,,3-6[8:1]/7,,,,8w4[8:1]/3,,,,8,,,,
{16}1/6-4[8:1],,,,7/6-2[8:1]*-8[8:1],,,,6,,,,3-8[8:1],,3,,
{16}4-7[8:1]/3,,,,2-6[8:1]/4,,,,2v8[8:1]/6v4[8:1],,,,,,,,
{16}3b^6[8:1]/7,,,,8bz4[8:1]/3,,,,1b/8,,,,3b-8[8:1]/7-5[8:1],,2,,
{16}3/7b,,,,6b-1[8:1]/2-4[8:1],,7,,6/2b,,,,8b<4[4:1]/3,,,,
{16}4b>8[4:1],,4,,8b<4[4:1],,8,,4b,,4,,8b,,8,,
{16}2b,4,3,5,4,6,5,7,{24}4b,3,2,8,7,6,3,2,1,7,6,5,
{16}4q4[2:3]/8bq8[2:3],,,,,,,,,,,,,,,,
{16},,,,,,,,,,,,,,,,
{16}5/7qq2[2:3],,,,,,,,,,,,,,,,
{16},,,,,,,,,,,,,,,,
{16}8/5pp3[2:3],,,,,,,,,,,,,,,,
{16},,,,,,,,,,,,,,,,
{16}4/7qq2[2:3],,,,,,,,,,,,,,,,
{16},,,,,,,,,,,,,,,,
{16}1/6pp3[2:3],,,,,,,,,,,,,,,,
{16},,,,,,,,,,,,,,,,
{16}7qq2[2:3]/3qq6[2:3],,,,,,,,,,,,,,,,
{16},,,,,,,,,,,,,,,,
{16}1/5<3[2:3],,3/4h[8:13],,,,,,,,,,,,,,
{16},,,,,,,,,,,,,,,,
{16}8/4>6[2:3],,6/5h[8:13],,,,,,,,,,,,,,
{16},,,,,,,,,,,,,,,,
{16}3pp3[2:1]/4,,25,,,,,,,,,,,,,,
{16}6qq6[2:1]/5,,74,,,,,,,,,,,,,,
{16}3pp2[2:1]/4,,1/5^8[8:3],,,,,,,,,,,,,,
{16}6qq7[2:1]/5,,8/4^1[8:3],,,,,,,,,,,,,,
{16}2-6[8:1],,2h[8:3],,,,,,3-7[8:1],,3h[8:3],,,,,,
{16}4-8[8:1],,4h[8:3],,,,,,5-1[8:1],,5h[8:3],,,,,,
{16}6-2[8:1],,6h[8:3],,,,,,7-3[8:1],,7h[8:3],,,,,,
{16}8-4[8:1],,8h[8:3],,,,,,1w5[8:1],,1,,,,,,
{16}2-8[8:1],,2,,3-7[8:1],,3,,4-6[8:1],,4,,8,,,,
{16}7-1[8:1],,7,,6-2[8:1],,6,,5-3[8:1],,5,,1,,,,
{16}2,4,2,4,3,4,3,4,5,6,5,6,5,7,5,7,
{24}4,3,2,1,8,7,6,5,4,3,2,1,{32}8,7,6,5,4,3,2,1,8,7,6,5,4,3,2,1,
{16}7b/8bw4[4:3],,,,,,,,,,,,,,,,
{16},,,,,,,,4,5,3,6,2^5[8:1],7,1,8,
{16}2b/7-3[8:1],,,,1^6[8:1]/7,,,,14,,4,,2,,6,,
{16}7-3[8:1]/3,,,,7-5[8:1]/8,,1,1,7-3[8:1],,2,2,7,,8,,
{16}1^4[8:1]/5,,,,14,,8^5[8:1],,,,85,,2h[4:1],,,,
{16}4,,4,3,4,,4,2,4,,4,1,4-8[8:1],,4,8,
{16}4b-1[8:1],,,,7-4[8:1]/4,,,,27,,2,,8,,4,,
{16}1-5[8:1]/5,,,,6/1-3[8:1],,8,8,1-5[8:1],,7,7,1,,8,,
{16}47,,1,,6,,25,,8,,3,,56,,12,,
{24}2b,53,64,{16}7,,,,{24}8b,73,62,{16}1-5[8:1],,,,7b,,,,
{16}84,7,6,5,43,5,6,7,83,1,2,3,42,5,6,7,
{16}18,2,3,4,58,4,3,2,16,8,7,6,57,4,3,2,
{16}51,6,7,8,12,8,7,6,52,4,3,2,13,8,7,6,
{16}4b/5,3,2,1,8/3b,4,5,6,7/5b,4,3,2,{32}1/7b,6,5,4,3,2,1,8,
{16}5b,6,5,6,5,6,5,6,5,6,5,6,4,5,3,4,
{16}2b,3,2,3,2,3,2,3,2,3,1,7,2,6,3,5,
{16}4b,4,4,4,4,4,4,4,4,4,4,4,4,4,4,4,
{24}3b,2,1,8,7,6,35,2,1,8,7,6,{32}1b/5,2,3,4,5,6,7,8,1,82,37,46,5,,,,
{12}7b,7,3,1,1,3,5,5,3,7b,,,
{12}2b,2,6,8,8,6,4,4,6,{32}2b,1,8,7,6,5,4,3,
{12}8b,8,8,2,4,3,1b,1,1,5,7,6,
{12}8b,8,1,4b,4,5,{24}7,8,1,6,7,8,5,6,7,4,5,6,
{16}1b-5[8:1],,,,,,7,8,1b-5[8:1]/6b,,,,4b,,8bz4[8:7]*s4[8:7],,
{16},,,,,,,,,,,,,,,,
{16},,,,,,,,,,,,,,,,
{16},,,,,,,,,,,,,,,,
E
