&title=Deicide
&artist=void (Mournfinale) feat. 古泉葉月
&first=0.0333
&des=Sage
&lv_4=12.8
&lv_5=14.5
&inote_4=(163){1},
{4},,5,4,
3h[1:1],,,,
{8}8p5[2:1],,,4,,,2,,
1w5[2:1],1,,,,,,,
3h[4:3]/7h[4:3],,,,,,,,
5b/1bV37[4:2],,4,4,5,,6,,
6h[4:3],,,,1-5[8:1],,,,
4/8V62[4:2],,5,5,4,,3,,
3h[4:3],,,,5-1[8:1],,,,
8/4V26[4:2],,1,1,8,,7,,
7h[4:3]/5,,,,4-8[8:1],,,,
1/5V73[4:2],,8,8,1,,2,,
2h[16:11]/4,,,,{16}8-4[16:1],,,8b,,,,,
{8}3/5h[4:1],2,2,6/4h[4:1],7,7,28,3,
6/4h[4:1],7,7,3/5h[4:1],2,2,71,6,
3/5>8[8:3],,,8-5[8:1],,,3,,
2/8>5[8:3],,,5-8[8:1],,,3,,
{4}4>1[4:1],1<6[4:1],6>3[4:1],3>8[4:1],
8<5[4:1],5-1[4:1],1,6,
{16}6,5,6,5,6,,3,4,3,4,3,,7,8,7,,
2,1,2,1,3,8,3,8,4,7,4,7,5-1[8:1],,,,
{8},,6h[8:3],,,4h[4:1],,8h[8:7],
4pp1[2:1],,,,,,,,
7pp4[2:1],,,3h[8:3],,,,,
2qq5[2:1],,,6h[8:3],,,,,
8pp5[2:1],,,4h[4:1],,,2,,
1qq4[2:1],,,5h[4:1],,,7,,
8w4[2:1],,,,,,,,
2/6h[4:3],,,,,,1-4[8:1]*q3[4:5],,
5bq7[1:1],,,,,,,,
,,,,,,1V35[8:1]*V75[8:1],,
,,2b/8b,,35,2,46,7,
3h[8:1]/5,8,6h[8:1]/4,1,3-8[8:1]/4,3/4h[8:1],,,
64,7,53,2,6h[8:1]/4,1,3h[8:1]/5,8,
6-1[8:1]/5,65,4-8[8:1],,8v3[8:1]*v5[8:1],,,,
{4}6-2[8:1]/2,4-1[8:1],7-4[8:1],3-8[8:1],
5-8[8:1],2-5[8:1],{16}6,,,8h[16:3],,,4,,
{4}3-1[8:1],8-4[8:1],5-1[8:1],2-4[8:1],
{8}6-2[8:1],6,{4}1pp5[4:1]*qq5[4:1],,,
4h[8:1]/6h[16:3],1h[8:1]/6h[8:1],5h[8:1]/3h[16:3],8h[8:1]/3h[8:1],
1h[8:1]/7h[16:3],4h[8:1]/7h[8:1],{16}35,5h[8:1],,1h[16:3],,,6,,
5h[8:1]/3h[8:1],,,3,8h[8:1]/3h[8:1],,,,4h[8:1]/6h[8:1],,,6,1h[8:1]/6h[8:1],,,,
{8}25,25,5/2h[6:1],,{12}8,8,8,4,4,4,
{16}48,,,,6,5,6,5,7,,,15,,,24,,
{4}2-8[8:1]/4-6[8:1],,{12}1,1,1,{4}1-6[8:1]*p7[4:5],
5bp3[1:1],,,,
,,,,
2h[1:1],,8,,
6h[1:1],5,1,,
4h[1:1],,8,,
7h[1:1],5,1,,
{8}2h[1:1],,5,,8,,,,
6h[1:1],,5,,1,,,,
4h[1:1],,6,,8,,,,
7h[1:1],,5,,1,,,,
{4}1h[8:1],2h[8:1]/4h[8:1],3h[8:1]/5h[8:1],4h[8:1]/6h[8:1],
8h[8:1],7h[8:1]/5h[8:1],6h[8:1]/4h[8:1],5h[8:1]/3h[8:1],
{8}24,35,46,57,{16}8,1,2,3,4,5,6,7,
{4}8b-4[2:1],,,,
6b/2b-5[8:1],6-1[8:1],3-8[8:1],4-7[8:1],
2-5[8:1],8-5[8:1],{8}3-8[8:1],3,,6,
6/2-5[8:1],2,{4}6-1[8:1],3-8[8:1],4-7[8:1],
2-5[8:1],8-5[8:1],{16}3-8[8:1],,,7-4[16:1],,,7,,
{4}2-5[8:1],6-1[8:1],3-8[8:1],4-7[8:1],
2-5[8:1],{12}8-5[8:1],8,8,{6}3-8[8:1],4-7[12:1],4,
{8}1-5[8:1],1,5,,{16}6-1[16:3],,,1-5[16:3],,,{8}5>8[8:5],
5-8[2:1],,,,,,,,
2h[4:7]/6h[4:7],,,,,,,,
,,,,,,,,
1-5[8:3],,,5s1[8:3],,,,,
8-4[8:3],,,4q1[8:3],,,1V75[2:1],,
2-6[4:1],,,,,,3>4[4:3],3,
7-3[2:1],,,,,,,,
1-5[8:2],,,5qq5[8:2]*-1[8:2],,,,,
8-5[8:2],,,5>8[4:1],,,,,
4-7[4:1]*qq4[4:1],,,,,,8V64[4:3],8,
3h[4:3],,,,,,,,
{16}7-5[16:3],,,5v4[16:3],,,4-2[16:3],,{8},,1v7[4:3]*v4[4:3],,
,,,,,,,,
{4}4h[8:1],3h[8:1]/5h[8:1],2h[8:1]/6h[8:1],1h[8:1]/7h[8:1],
2h[12:1]/8h[6:1],7h[12:1]/3h[6:1],4h[12:1]/6h[6:1],1b/5b,
{16}2,2,4,4h[16:3],,,1,,7,7,5,5h[16:3],,,8,,
3,3,1,1h[16:3],,,4,,6,6,8,8h[16:3],,,5,,
1,1,5,5,3,,8,8,4,4,6,,3,6,4,5,
2,7,3,6,1-5[8:1],,5<4[8:3],,5,,,,,,,,
{12}8,8,8,8b/4b,,,{16}2,5,2,5,3,6,3,6,
4,,8,5,7,4,6,3,5,2,6,4,8,,,,
{8}34,2b/5b,,65,7b/4b,,21,3b/8b,
,78,6b/1b,,3-8[8:1]/4-7[8:1],,,,
{12}1,1,1,1b/5b,,,{16}7,4,7,4,6,3,6,3,
5,,1,4,2,5,3,6,4,7,3,5,1,,,,
3,4,3,4,2,,6,5,6,5,7,,2,1,2,1,
3,,7,8,7,8,6,,6-1[8:1]/5-2[8:1],,,,,,,,
{8}8-4[4:1],8,,8b,,,,{16}2,5-8[16:13],5>8[4:3],
&inote_5=(163){1},
{4},,5h[4:1],4h[4:1],
{8}6,5,4,3h[8:5],,,,,
{16}8,7,6h[8:5],,4,,2,,,,,,3,,,,
7,,{32}6,4,{16},,,,,{4}2,2,
{8}3,3,7,7,{16}15,2,3,4,5,6,7,8,
{8}1b-5[4:1],,5V38[8:3],6,7-4[8:1],,7,,
{16}5,6,7,8,2,3,4,5,6h[4:1],,,,2,,,,
{8}8-4[4:1],,4V61[8:3],3,2-5[8:1],,2,,
{16}4,,3,5,2,,16,,15,2,3,4,7,6,5,4,
{8}3V15[4:1],,5,6,7-4[8:1],,37,,
{16}1,2,3,4,1,8,7,6,4,3,2,1,58,,,,
1,4,3,4,2,,8,5,6,5,7,,1,8,2,7,
3,6,4,5,3,6,3,7,{24}4,5,6,7,8,1,{32}26,7,8,1,2,3,4,5,
{8}2b-6[4:1]/6b,,6V83[8:3],5,4-7[8:1],,4,,
6/2h[2:1],,,,1-6[8:1],,13,,
4>8[8:2],,6,7V13[4:1],,,5,,
5<1[8:2],,3,2V86[4:1],,,4,,
{4}4-1[8:1],4/7-3[8:1],7/2-6[8:1],2/8-5[8:1],
8/3-7[8:1],3/4-8[8:1],4/1-6[8:1],12,
{16}3,4,3,5,2,,6,5,6,4,7,,8,1,7,2,
6,3,5,4,6,3,6,2,{32}5,4,3,2,1,8,7,6,{4}5/1w5[8:1],
1b,,,,
4h[1:1],,,,
{8}7pp4[2:1],,,4,,,,,
2qq5[2:1],,,5,,,,,
7p5[2:1],,4,4,,1,1,,
2q4[2:1],,5,5,,8,8,,
8w4[2:1],,,,,,,,
2/6h[4:3],,,,,,1-4[8:1]*q3[4:4],,
1b/5bq7[4:3],,,,,,,,
,,,,{16}2,6,5,7,1b,,,,
{32}16,5,4,3,2,1,8,7,{16}46,,,,2-5[8:1],,5-1[8:1],3,6,,8,,
7-4[8:1],,4-8[8:1],6,3,,1,,2V46[8:1],,7,7,2,,,,
8-5[8:1],,4,4,8,,2,,1-4[8:1],,5,5,1,,,,
57,,57,,4h[16:3]/8h[16:3],,,,{16}37,26,15,84,3<6[8:1]/7>2[8:1],,,,
{4}3-7[8:1]/7,3/5-8[8:1],5/2-5[8:1],2/6-1[8:1],
6/4-1[8:1],4/7-4[8:1],{16}37,,,1-5[16:1],,,15,,
{4}6-8[8:1],6/1-5[8:1],1/4-8[8:1],4/7-5[8:1],
{8}7/3-7[8:1],3,{4}3/8qq4[4:1]*pp4[4:1],8b,,
{16}2b-8[8:1]/5b,,3,4,2,,6,,1/6-4[8:1],,7,8,6,,1,,
5-3[8:1]/1,,6,7,5,,1,,48,48,,1-4[16:1]/5,,,15,,
7-1[8:1],,6,5,7,,3,,8/3-5[8:1],,2,1,3,,8,,
15,,15,,1h[6:1]/5h[6:1],,,,{12}15,1,1,15,5,5,
{16}4b/8b,,,,48,37,26,15,4/8-4[16:1],,,8/6-1[16:1],,,56,,
5>2[8:1]*<8[8:1],,,,5,,,,{12}1-4[8:1],1,1,{4}5/1-6[8:1]*p7[4:5],
1b/5bp3[1:1],,,,
,,26,4/8w4[8:1],
8b,,,35,
{8}7-4[8:1],,4-8[8:1],1-6[8:1],,,3,,
2-5[8:1],,5-1[8:1],8-3[8:1],,,6,,
7<4[8:1],,4-8[8:1],1<6[8:1],,,3,,
1>5[8:1],,5,6-3[8:1],,8,8,,
8<4[8:1],,4,3-6[8:1],,1,1,,
1-5[8:1],,5,6>2[8:1],,8,8,,
8w4[2:1],,,,,,,,
2/6h[4:5],,,,3,,3,,
4,,8,,5/3h[4:1],,1,,
57,6,35,24,{16}1,5,3,1,5-1[8:1],7,1,5,
3b,,,,,,,,{16}3,8,4,7,5-2[8:1],,,,
{4}5b/1-6[8:1],1/7-4[8:1],3-8[8:1]*-6[8:1]/7,3V57[8:1],
3/1V35[8:1],{16}1-5[8:1]/8,,,7,{8}7V53[8:1]/1,6,,,
1-5[8:1],28,1/7V53[8:1],,7/1V35[8:1]*V75[8:1],,1,,
{16}37,,,26,{8}2-5[8:1]/6,15,{16}26,,,8-4[16:1],,,48,,
{8}3V17[8:1]*V17[8:1],,3V57[8:1]*V57[8:1],4,3w7[8:1]*w7[8:1],,3,,
1/5V31[8:1]*V31[8:1],,{12}6/5V71[8:1]*V71[8:1],6,6,{6}5,2h[12:1],48,
{8}26,48,26,,{16}1-4[16:1]*V35[16:1],,,15,,,7,7V13[16:5],
{4}7V53[4:1],,,1-4[8:1]/5-8[8:1],
{1}1<1[2:3]*<5[4:3]/5>5[2:3]*>1[4:3],,
{8}7-4[8:1],,3,1-5[8:1],,,6,,
2-5[8:1],,6,8-4[8:1],,,3,,
7-4[8:1],,37,1-5[8:1],,16,6,,
2-5[8:1],,62,8-4[8:1],,83,3,3,
{16}2,,6,5,7,4,5,,3h[4:1],,,,{24}8,7,6,5,,,
{16}7,,3,4,2,5,4,,7h[4:1],,,,{24}2,3,4,5,,,
{16}8,5,7,4,6,3,5,2,4,8,6,4,8-4[8:1]*-4[8:1],2,4,8,
{1}6b,
{16}3h[1:0]/7h[1:0],,,37,,,1/5h[8:3],,{12},,,2,6,4,
8,2,5,1,7,4,8,3,5,1,6,4,
{16}8h[8:1],,3,3,7h[8:1],,2,2,{24}6,5,4,3,2,1,84,5,6,7,8,1,
{12}25,4,3,74,5,6,2-4[8:1]/7-5[8:1],8,1,27,,,
{16}3,4,3,2b/4b,,,17,,6,5,6,7b/5b,,,38,,
2,2,2,3b/1b,,,46,,7,7,7,6b/8b,,,35,,
2,4,2h[8:1],,8,,6,4,6h[8:1],,1,,2,4,2,,
3,6,4,5,3,6,3,7,{24}4,5,6,7,8,1,{32}26,7,8,1,2,3,4,5,
{12}2-5[8:1]/6-1[8:1],2,2,2b/6b,,,{16}4,8,2,6,5,7,3,1,
2,8,4,6,1,7,3,5,{24}1,2,3,4,5,6,72,3,4,5,6,7,
{16}4h[1:0],4,8b,8,2,2,6h[1:0],5,7b,7,3,3,1h[1:0],1,5b,6,
5,5,1h[1:0],1,3b,3,6,5,{32}1,8,7,6,4,3,2,1,{4}5h[4:1],
{24}2,4,2,4,2,4,{16}1b/5b,,,,{16}5,1,7,3,4,2,6,8,
7,1,5,3,8,2,6,4,{24}8,7,6,5,4,3,27,6,5,4,3,2,
{16}5h[1:0],5,1b,1,7,7,3h[1:0],4,2b,2,6,6,8h[1:0],8,4b,3,
4,4,8h[1:0],8,6b,6,3,4,{32}8,1,2,3,5,6,7,8,{4}4h[4:1],
{8}1-5[4:1]*-5[4:1],37,,1b,,,,{16}7,5-8[16:13],5>8[4:3],
