&title=君の神様になりたい。
&artist=カンザキイオリ
&first=1.27
&des_5=Ragna
&lv_5=13
&des=Ragna
&wholebpm=196
&demo_seek=40
&demo_len=20.8
&inote_5=(196){8}
34,,35,,36,,3/7-3[8:1],73,
,2,2,4,3,3,6,6,
4-1[8:1],,8-5[8:1],,2,2,7,4pp4[16:5]*qq4[16:5]/8,
,,,,,,26,,
73,,74,,75,,7/6^3[8:1],76,
,8,8,1,7,7,3,3,
6-3[8:1],,2-7[8:1],,5,5,3,4qq5[16:5]/6pp5[16:5],
,,,,,,73,,
2,6,2,5,2,4,2,5-1[8:1],
,4>5[16:5],,8,,,,,
7,7,3h[4:1],,5,5,4,3qq5[32:11]/6pp4[32:11],
,,,,,,36,7,
2,7,1,7,3,7,5,7,
8,7,4-8[8:1],,5,5,2,2,
3-8[8:1]/7-4[8:1],,37,,,,15,,
,,,,,,,,
3h[8:3],,,4h[8:3],,,5pp2[16:9],,
6,,,,,,,,
7h[8:3],,,8h[8:3],,,1pp6[16:9],,
2,,,,,,,,
4h[8:3],,,5h[8:3],,,6qq1[16:9],,
7,,,,,,,,
8h[8:3],,,1h[8:3],,,2qq5[16:9],,
3,,,,,,,,
4/5-1[8:1],,2h[4:1],,7,8,7,8,
6/1-5[8:1],,6h[4:1],,3,4,3,4,
2/5^8[8:1],,3h[4:1],,1,2,1,2,
3^8[8:1]/8,,7h[4:1],,5,6,5,6,
7h[8:1]/4pp1[16:7],,8h[8:1],,8h[8:1],,8h[8:1],,
7h[8:1]/4pp1[16:7],,8h[8:1],,8h[8:1],,8h[8:1],,
2-5[8:1]/7,,8,8,1-5[8:1]/7,,8,8,
2-5[8:1]/7,,8,8,1-5[8:1]/7,,8,8,
12,21,,45,45,,87,61,
,45,2p5[8:1]/7q4[8:1],,,,6b/3,,
3-8[8:1],3,4-7[8:1],4,2^5[8:1],2,1-5[8:1],1,
3-8[8:1],3,7-3[8:1],7,1-5[8:1],1,4^7[8:1],4,
3-7[8:1],3,8-4[8:1],8,1^6[8:1],1,5,5<4[16:4],
,4b,,,,3,2,1,
7-4[8:1],8-3[8:1],7,8,5,64,,
2-5[8:1],1-6[8:1],2,1,4,3,24,,
81,7,18,2,81,6,18,3,
81,5,18,4,1^4[8:1]/8^5[8:1],,1b/8b,,
7-3[8:1],7,5>1[8:1],5,,8^5[8:1],8,2-6[8:1],
2,4<8[8:1],4,,2-5[8:1],2,1-6[8:1],1,
3^8[8:1],3,5-1[8:1],5,2-5[8:1],2,8^5[8:1],8,
1V73[4:1],1,,4,4^7[8:1],,2b,,
1-5[8:1],8-4[8:1],1,8,3,2,16,,
28,2,17,7,28,3,17,6,28,4,17,6,28,5,17,5,
28,37,4b/6b,,
5^8[8:1],4,5,2-5[8:1],2,1b,1b,,
4^1[8:1],5,4,7-4[8:1],7,8b,8b,,
5^8[8:1],4,5,2-5[8:1],2,1b,1b,,
4^1[8:1],5,4,7-4[8:1],7,8b,8b,,
5-1[8:1],4,5,2^5[8:1],2,8b,8b,,
4-8[8:1],5,4,7^4[8:1],7,1b,1b,,
5-1[8:1],4,5,2^5[8:1],2,8b,8b,,
4-1[8:1],5,4,8,27,36,4b/5b,,
3-8[8:1],4,3,7-4[8:1],7,1b,1b,,
6-1[8:1],5,6,2-5[8:1],2,8b,8b,,
3-8[8:1],4,3,7-4[8:1],7,1^4[8:1],1,5-1[8:1],
5,3,3,8,7-4[8:1]/2-5[8:1],,7b/2b,,
3^6[8:1],6,3,8-4[8:1],8,1b,1b,,
6^3[8:1],3,6,1-5[8:1],1,8b,8b,,
3^6[8:1],6,3,8-4[8:1],8,1b,1b,,
6^3[8:1],3,6,,1^4[8:1],8^5[8:1],1,8,
,,,36,27,1b>8[4:7]/8b<1[4:7],,,
,,,,,,,,
,,,,,,,,
,,,,5^8[8:1],4^1[8:1],5,4,
,,,27,36,4b<4[1:3]/5b>5[1:3],,,
,,,,,,,,
,,,,,,,,
,,,,,,,,
,,,,,6,5,5,
7,8,4,3,8,2h[4:1],,1,
3,4-1[8:1]/5-8[8:1],,45,,2,1,1,
3,4,8,7,4,6-2[8:1],,6/4-1[8:1],
,4/7-3[8:1],,72,,1^4[8:1],5,6,
7,1^4[8:1],5,6,7,1^4[8:1],5,6,
7,1^4[8:1],5,6,7,1^4[8:1],5,6,
7,1^4[8:1],5,6,7,1^4[8:1],5,6,
7,8,1,2,3,4h[4:1]/5h[4:1],,,
2h[4:1]/6h[4:1],,,38,,15,1-5[8:1]/5,,
15,6b,4b,8b,2b,,,
,,,,,,,,
E
