&title=二言目
&artist=神前暁 & 斎藤千和
&first=-0.02
&des=亚克力
&lv_5=12
&inote_5=(132)
{4},,,,,,,,
{8}5h[8:3],,,4,,,,,
{8}6h[4:3]/4,,,,,,,,
{8}3h[8:3],,4-6[12:1],,,,,,
{8}2h[4:3],,,,,,,,
{8}6-3[8:1],,3,,2-5[8:1],,4,,
{8}6<3[4:3],,3,,3,,4,,
{8}5h[4:1],,4-6[12:1],,,,7-4[8:1],,
{8}5-2[8:1],,7,,1^4[8:1]*^6[8:1],,,,
{8}3-6[8:1],,6,,7-4[8:1],,5,,
{8}3>6[4:3],,6,,6,,5,,
{8}4h[4:1],,5-3[12:1],,,,2-5[8:1],,
{8}4-7[8:1],,2,,8^5[8:1]*^3[8:1],,8,,
{8}1v3[8:1]*-5[8:1],,1,,{8}8v6[8:1]*-4[8:1],,8,,
{8}6-3[8:1]/4,,2h[4:1],,3-6[8:1],,7h[4:1],,
{8}8-4[8:1],,18,,2-5[8:1],,6,,
{8}8-5[8:1],,2,,3-6[8:1],,1/3,,
{8}7<3[4:1]/1,,3<7[4:1],,1-5[8:1],,1,,
{8}8v6[8:1]/5-1[8:1],,,,7^4[8:1]/2v8[8:1],,72,,
{8}3v8[8:1]/8,,2,,6v1[8:1]/1,,7,,
{8}4-8[8:1]/8,,2,,5s1[16:3]/1,,,
{8}7,8-4[8:1],8,,1,1-5[8:1],1,,6,
{8}7-4[8:1],7,,3,2h[8:1],1,,3,
{8}2-5[8:1],2,,6,7-4[8:1],7,,2,
{8}1-5[8:1],1,,6,7h[8:1],8b,,
{8}2,1-5[8:1],1,7,8,8-4[8:1],8,3,2,
{8}2-5[8:1],2,5,6,7h[8:1],8,1,72,
{8}7-4[8:1],7,4,3,3-7[8:1],3,7,8,
{8}8-4[8:1],8,4,3,2h[8:1],1,,
{8}2,3b,4,5b,6,7b,8,1b,2,3b<3[4:2],
{8},,,,,,,
{16}7b^4[8:1],,,,7/8,,1-6[8:1],,,,1/4,,,,3q7[8:1]/7,,
{16},,8,,1,,2-4[8:1]/8-4[8:1],,,,,,,,3,5,
{16}2-5[8:1],,,,2/5,,8-5[8:1],,,,8/5,,,,4,,
{16},,65,,7-3[8:1],,8,,1w5[8:1]/7,,,,1,,,,
{16}2b^5[8:1],,,,2/1,,8-5[8:1],,,,8/4,,,,6p2[8:1]/2,,
{16},,3,,4,,5-1[8:1]/1-7[8:1],,,,,,,,1,8,
{16}7-4[8:1]/2,,,,7/4,,1-4[8:1],,,,17,,,,6,,
{16}5/4b,,3,,2b-6[8:1],,1,,8b^3[8:1]*^5[8:1]/2,,,,8w4[8:1],,,,
{16}8b,,,,,,62,,5h[8:3],,,,,,1,,
{16}2qq7[8:3]/6,,,,5,,5h[16:4],,,,,,,,15,,
{16},,3h[8:3]/7h[8:2],,,,,,8-4[8:1],,,,,,1,,
{16}1>5[4:1],,,,5<1[4:1],,,,1>5[4:1],,,,5,,,,
{16}1,,,,4qq8[8:3]/8,,7,7,,,6,,5,,4,,,,1h[8:2]/5h[8:2],,,,,,2/4,,,,3qq5[8:5]/6pp4[8:5],,,,36,,,,,,,,,,,,,,,,,,,,,,,,,,,,,,,,
{8}3h[8:3],,4-7[12:1],4,,,,,
{8}2h[16:12]/6h[16:12],,,,,,,,,,,,E
