&title=H2O
&artist=monet
&first=-1.55
&des=Kondou
&lv_5=12+
&inote_5=(94){8},,,,,{32},,,4,{16}5,5,2,2,
8b^5[8:1],,,4-7[8:1],,,1pp8[8:2],,,,,,6,,,,
5-8[8:1],,,1^6[8:1],,,2pp5[8:2],,,,,,1,,,,
6p1[8:1],,,8-5[8:1],,,2pp8[8:2],,,,,,7,,,,
6^3[8:1],,,1,1,,2b^7[8:1],,,,7,,5,,6,6,
1b^4[8:1],,,5-2[8:1],,,8qq1[8:2],,,,,,3,,,,
4-1[8:1],,,8^3[8:1],,,7qq4[8:2],,,,,,8,,,,
3q8[8:1],,,1-4[8:1],,,7qq1[8:2],,,,,,2,,,,
4qq1[8:4]/5pp8[8:4],,,,,,,,,,,,,,,,
3>6[8:4],,,,,,,,,,,,5,,,,
3-6[8:4],,,,,,,,,,,,8,,,,
5q5[8:5],,,,,,,,,,,,5q7[8:5]*p3[8:5],,,,
,,,,,,,,,,,,2,,,,
7V51[8:4]/8,,,4h[16:7],,,,,,,,,2,,,,
2V84[8:4]/1,,,5h[16:7],,,,,,,,,7,,,,
6V83[8:4]/2,,,5h[16:7],,,,,,,,,4^1[8:2],,,,
8h[16:3],,,,,7,7-4[8:2]/5h[8:2],,,,,,1,,2,2,
5^8[8:1],,,4,4,,,5,5^2[8:1],,,6,6,,,5,
5^8[8:1],,,8qq1[8:2]*>5[8:2],8,,,,,,,,6^3[8:1],,,,
8-5[8:1],,,1,1,,,8,8-3[8:1],,,7,7<2[8:2],,,,
1,,,8,8pp4[8:3],,,,,,5,,5,,,,
63,,,58,,,7pp2[8:3]/2,,,,2,,3,,4,,
5>6[8:3],,,,,6,6-1[16:3]*-2[16:3],,,,,,,,,,
8b/4b,,7,68,,3,4bV25[8:2]/1b,,,,6,,7,,8V61[8:2],,
12,,3,,4,,,2,2h[8:1],,4,4h[8:1],,8,8-5[8:1],,
6pp3[8:2],,8,,,,,,,,2,,17,,4,5,
6-1[8:1]/3h[16:3],,,,2,2,4bV26[8:2],,,,,,6V41[8:2],,,,
2b,,,,3^6[8:1],,,6,6p2[8:1],,,,2pp8[8:2],,,,
8<1[8:2],,,,5h[8:2],,,,,,48,,62,,8/4V25[8:2],,
,,5-1[8:1]/4,,7,,1V38[8:2],,,,5,,7qq3[8:4]*-3[8:4],,,,
,,,,,,,,,,,,1-5[8:6],,,,
1h[8:6],,,,,,,,,,,,,,,,
3,,2,2,,1,1,,8h[8:2],,,,5,6,7,8,
1b-4[8:1],,,5^2[8:1],,,6pp4[8:2],,,,,,1,,,,
3p7[8:1],,,8p4[8:1],,,5pp3[8:2],,,,,,1,,,,
2-7[8:1],,,6p1[8:1],,,4pp8[8:2],,,,,,3,,,,
2^7[8:1],,,7,7,,6b^3[8:1],,,,8,,2,,1,1,
8b-5[8:1],,,4^7[8:1],,,3qq5[8:2],,,,,,8,,,,
6q2[8:1],,,1q5[8:1],,,4qq6[8:2],,,,,,8,,,,
7-2[8:1],,,3q8[8:1],,,5qq1[8:2],,,,,,6,,,,
7h[8:2],,,5,5,,4b/3h[128:89],,,,(79){16}2,,8,,6,,
4bw8[8:7],,,,,,,,,,,,,,,,
