&title=翠杜
&artist=庭師; Aoi
&first=0
&des=Archer
&lv_5=14+
&inote_5=(180)
{8},,,,,,,,
{8}8<5pp6[1:1],,,,4,,3,,E2/B2/A2,,,,1h[8:2],,A5/E6/B5,,
{8}1>4qq3[1:1],,,,6,,7,,E8/B7/B8,,,,8h[8:2],,A4/E4/B4,,
{8}7pp2[1:1],,,,3,,4,,A5/B5/E6,,,,4h[8:4],,,,
{12}8x,5x,6x,1x,4x,3x,8x,6x,7x,1x,3x,2x,
{32}E1,B8,B7,E7,A3,D3,A2,D2,A7,D7,A6,D6,A2,D2,A1,D1,A6,D6,A5,D5,
{8},8b,,
{16}5,6,7,8,1,2,3,4,6,7,8,1,2,3,4,5,7,8,1,2,3,4,5,6,8,1,2,3,4,5,6,7,1,2,3,4,8,1,2,3,7,8,1,2,6,7,8,1,4,3,2,1/8,7,6,5,8,1,2,3/4,5,6<1[8:1],5,4,3,2/6b,,
{8}3,3,3,8/4h[8:4],8,8,8,
{16}7,3,7,3,6h[8:1],,2,5,3,6,4h[8:1],,8,3,7,2,
{16}1,6,1,6,1,6,1,6,2,5,2,5,2,5,2,5,3,4,3,4,3,4,3,4,
{8}3hx[4:1],,
{24}8hx[24:1],,,A8,D8,A7,D7,A6,D6,A5,D5,,
{24}4hx[24:1],,,A4,D4,A3,D3,A2,D2,A1,D1,,
{24}7hx[24:1],,,A7,D7,A6,D6,A5,D5,A4,D4,,
{24}3hx[24:1],,,A3,D3,A2,D2,A1,D1,A8,D8,,
{24}1hx[24:1]/5hx[24:1],,,A5/A1,D6/D2,A6/A2,D7/D3,A7/A3,D8/D4,A8/A4,D1/D5,,
{24}4hx[24:1]/8hx[24:1],,,A4/A8,D4/D8,A3/A7,D3/D7,A2/A6,D2/D6,A1/A5,D1/D5,,
{24}1hx[24:1]/5hx[24:1],,,2<8v3[4:1]/6>4v7[4:1],,,
{16},,2/6,,,,,,
{16}2,6,1,5,2<7[8:1],6,1,5,2>5[8:1],
{16},
{8},6,7<4[8:1],,8,1<6[8:1],,2,3v1>4[4:1],,6h[8:1],,,5h[8:2],7,8<5[8:1],,
{8}8,4p8[8:1],,4,6v1[8:1],,6,2-5[8:1],,2,
{16}6,7,8,1,7,8,1,2/8h[16:9],,,,,,,,,2b,,,7b,,,1/8,1/8,
{16}2bv5[8:1]/7b,,6,,2,,7,4,7>1[8:1],4,7,,3b,,,,
{16}4v1[8:1],,8,,4,,7,3,7<4[8:1],3,7,,2b,,,,
{16}1-5[8:1],,5,,1,,6,6,
{32}4,3,2,1,8,7,6,5/1,,,4/8,,,3/7,,,
{8}1v4[8:1],6<1[8:1],1,6,,5v2[8:1],8-4[8:1],5,8,1,,1,1v6[8:1],1v4[8:1],1<1b[8:12],,
{1},
{8},,,,
{16}8,7,6,5,4-8[8:1],3,2,1,
{8}4bpp2[8:3],,4,,8,7,,1/6pp1[2:1],,2,3,4,,,
{16}5pp1[2:1],4,3,2,1h[1:1],,,,,,,,,,,,,,8pp3[2:1],7,6,,,,
{8},,5-8[8:1],2-6[8:1],5,2,1-6[8:1]*-4[8:1],,1,,5-8[8:1],3-8[8:1],5,3,,7,1-4[8:1],,1<6[8:1],,1pp6[2:1],,1h[1:1],,,,,,,
{16}6,5,4h[2:1],,,,,,,,
{12}8,8,8,8/4,,,
{30}1h[60:1],B1,,,,5h[60:1],B5,,,,2h[60:1],B2,,,,6h[60:1],B6,,,,3h[60:1],B3,,,,7h[60:1],B7,,,,4h[60:1],B4,,,,8h[60:1],B8,,,,A3/A7,B3/B7,,,,2hx[60:1]/6hx[60:1],B2/B6,,,,,,,,,
{12}4hx[60:1]/8hx[60:1],4hx[60:1]/8hx[60:1],
{30}3h[60:1],B3,,,,7h[60:1],B7,,,,2h[60:1],B2,,,,6h[60:1],B6,,,,1h[60:1],B1,,,,5h[60:1],B5,,,,2h[60:1],B2,,,,6h[60:1],B6,,,,A7/A3,B7/B3,,,,4hx[60:1]/8hx[60:1],B4/B8,,,,,,,,,,,,,,
{16}1>4[8:1],5,1,5,1b,,6<1[8:1],6,3,,6b,,5>2[8:1],5,8,,5b,,7<4[8:1],7,3,,7b,,1q5[8:1],1,5,,1,6,6,4,
{16}4bh[16:4],,,,7b-2[8:1],,3,3,7,,5bp1[8:1],,1,1,5,,6bq2[8:1],,3,3,6,,
{32}4,5,6,7,8,1,2,3,7,6,5,4,3bxh[128:1],2,1,8,7bxh[64:1],6,5,4,
{16}3bxh[128:1]/8,,,,1b,2,3,4,5,6,7/2b,1,8,7,6,5,4/8b,1,2,3,4,5,6/1b,8,7,6,5,4,3/6b,5,4,3,2/5b,6,7,8,1/5b,4,3,2,1,8,
{32}7/4b,5,6,7,8,1,2,3,4,1/5,2/6,3/7,
{4}4b/8b,C1,C1,C1,
{16}E1,B1,B2,E3,A3,E4,B4,B5,E6,
,8xh[1:1],,,,,,,,A7,D7,A6,D6,A5,D5,A4,D4,A3,D3,7x,,,,
{16}A6,E7,B7,B8,E1,A1,E2,B2,B3,E4,A4,E5,B5,B6,E7,A7,A3,D3,A2,D2,A1,D1,A8,D8,A7,D7,A6,D6,A5,D5,A4,D4,
{16}5,,5,,3,,6,4,6,4,6,,2,,,,
{16}4,,4,,6,,3,5,3,5,3,,7,,,,
{16}7,,7,,1,,8,2,8,2,8,,3/7,,,,
{8}2hb[2:1],7,6,5,4,5,6,7,
{8}8/4h[8:3],,8,,8/3h[8:3],,8,,8/2h[8:3],,8,,3h[8:2]/8,,8,,7/4h[8:2],,7,
{16}3,2,
{8}1h[8:2]/7,,7,2h[8:2],7,,7/3h[8:1],,7/4h[8:1],,7,4,
{8}7/4h[1:1],7,7,7,7,7,7,7,7h[1:1],4,4,4,4,4,4,4,
{16}4,6,4,6,4,6,4,6,
{32}4,3,2,1,
{16}6,6,3,3,5,5,1,,,,
{16},,1h[8:3],,5,,6,,7,,
{24}8h[8:3]/A1,D2,A2,D3,A3,D4,A4,D5,,,,,
{24}7h[8:3]/A5,D5,A4,D4,A3,D3,A2,D2,,,,,
{24}1h[8:3]/A8,D8,A7,D7,A6,D6,A5,D5,,,,,
{24}2h[8:3]/A4,D5,A5,D6,A6,D7,A7,D8,,,,,
{24}3h[8:3]/A1,D1,A8,D8,A7,D7,A6,D6,,,,,
{16}1h[16:6],,,,4,5,6h[8:5],,
{2},
{8}1pp5[2:1],,8,7,6<1[8:1],,6,,
{8}4pp8[2:1],,3,2,1>4[8:1],,1,,
{8}7qq2[2:1],,5,4,3,,
{16}3,1,3,8,3h[8:1],,6,2,6,1,6h[8:1],,1qq7[8:1]*-5b[8:1],,,,1,,
{8},8h[8:3],4,3,2,
{16}1h[8:1]/7x,6,5,4,3,2,1x,,5x,4,3,2,1,8,
{16}7x,,4x,5,6,7,8,1,2x,,4x,5,6,7,8,1,
{16}2x,,5x,6,7,8,1,2,3x,,7x,8,1z5>5[4:3],2,3,4,
{2}1xs5<5b[0##1],
{8},,
{16},,,,4<7[8:1],3,2,1,8h[4:1],,,,4>1[8:1],5,6,7,8h[16:2],,,,7/8,,1>4[8:1]/6<8[8:1],,,,1v6[8:1]/6-3[8:1],,,,1v4[8:1]/6>2[8:1],,,,,,
{16},,1h[16:2],,5,8,,6,1,,2h[16:2]/7,,8,3,,7,1,,6/8,,1pp4[2:1]/5,,6,,7,,8,,1,8,7,6,5,6,7,8,
{16}1w5[8:1],,,,1b,,,,3-6[8:1]/7-2[8:1],,3/7,,3b/7b,,,,1/5,,4/8,,3b/7b,,2,6,1w5[8:1],5,1,,1b,,,,
{16}3h[16:6]/7,,,,7pp1[8:1],,2>5[8:1],,,,2,8,7h[2:1],,,,
{16}6>3[8:1],,6,,6,,8,2,7,3,6,4,5,,5<8[8:1]/3,,3,,5/3,2,1,,2h[4:1],,,,,,1-5[8:1]/7-3[8:1],,1/7,,,,,,2v4[8:1]/6v8[8:1],,2/6,,,,,,
{16}3/7,,,,2/6,,3/7,4/8,5/1,,1h[8:2]/5h[8:2],,,,
{16},,4-1[8:1]/8-5[8:1],,4/8,,,,,,
{16}6,7,8,1,3,1,3,1,3v6[8:1],1v6b[16:1],3,1,3,,,,
{16}4/8,,4/8,3/7,2/6,1/5,8/4,7/3,7x/3x,,7/3,8/4,1/5,2/6,3/7,4/8,5x/1x,,
{16}5/1,4/8,3/7,2/6,1/5,8/4,8x/4x,,1/5,2/6,3/7,4/8,5/1,6/2,6x/2x,,6/2,5/1,4/8,3/7,2/6,1/5,
{32}4hbx[4:5]/8bx,7,6,5,,3,2,1,8,7,6,5,,3,2,1,8,7,6,5,,3,2,1,8,7,6,5,,3,2,1,
{8},,8bv3[8:1],8,8b/5v2[8:1],5,5b/4v7[8:1],4,4b/6v1[8:1],6,6b/8v3[8:1],8,8b/2,2,
{16}4,4,5,5,6,6,7,7,
{16}8<5[8:1],1,8,1,
{32}8b,D8,D7,D6,
{32}3>8[8:1],,4,,3,,,,3b/4,D3,D2,D1,7>2[8:1],,6,,7,,,,6/7b,D8,D1,D2,
{32}3>8[8:1],,4,,3,,,,3b/4,D3,D2,D1,7>2[8:1],,6,,7,,,,6b/7b,D8,D1,D2,,,,,4b/3b,,,,
{16},,1b>4[8:1],6,2,7,1,6,5b>2[8:1],7,4x,6,5,7,8b>3[8:1],6,1,7,8,6,4,7,3x,6,2,5,2b,4,
{32}1,2,3,4,5b,6,7,8,1/5,,,,
{16}2b,6,3,7,4,8,5b,1,4,8,3,7,2b,6,3,7,4,8,1b,5,8,4,7,3,6b,5,4,3,
{32}2b,1,8,7,6,5,4,3,2/8b,,
{16}8,6,6,4,4,2b,5,1,4,8,3,7b,7,5,5,3,3,1b,4,2,5,3,6,
{32}4b,3,2,1,8v6<7v5<5[1:4]/4b,5,6,7,8/4v2>3v1>1b[16:62],
