&title=Offline Saga
&artist=Empty old City / 水槽
&first=0.395
&des=Kaze vs Phos
&lv_5=13+
&inote_5=(89)
{4},,,,
{4}Ch[4:1],{12}B1,B2,B3,B8,B7,B6,E1,C,E5,
{4}Ch[4:1],{12}E2,E3,E4,E8,E7,E6,E1,C,E5,
{4}Ch[4:1],{12}A2,A3,A4,A7,A6,A5,D1,C,D5,
{4}Ch[4:1],,Chf[64:1]/B8/B2/B4/B6,{16},,,5,
{16}3,3h[16:1],4,3,
2/6h[16:1],,5,6,
7/4-1[12:1],,25,,
47,{32},,5,5,{16},
{16}C,7,65,4,
3/5-8[12:1],{32},,7,7,{32},,4-1[12:1],4,{32},,2,2,{32},,5,5,{32},,7,7,{16},
{16}5-8[12:1],2,7,4,
35,,,4-1[12:1],
5,2,7,46,
,6,71,2,
{16}35,6,4-2[16:1],,
5x-7[16:1],,4x-1[12:1],,
5x-8[12:1],,4x,,
5x,,C,,
{16}5bx,{32},3,4,,{32},6,5,,{32},2,4,,{32},7,5,,{32},3,6,,{32},1,8,,{16}4-1[12:1],5-8[12:1],
{16}2,7,4,5,
,C,8,{24}1x,7,7,
2x,8,8,
3x,1,1,
4x,2,2,{16}5bx-8[12:1],4,
{16}3,2,1/5,,
C,,4-1[12:1],3,
2,,74,6,
5-8[12:1],4,3,2,
{16}15,,2,3,
4-1[12:1],5,6,7,
8h[8:3],,E8,E7,
E6,E5,E4,E3,
{16}1>4[8:1]/7<4[8:1],,8,,
17,,,3h[8:1],
,5,4,6,
3,4,2,6,
{16}8<5[8:1]*>3[8:1],,17,,
8,,,4h[8:1],
,6h[8:1],,4,
5,6,7,8,
{16}1<4[16:3],,2,,
31,,2pp3[16:3],2,
,1,,6,
6,,7,,
{16}8<5[8:1]/1,,6,,
1>4[8:1]/8,,3,,
1/8z4[16:3],,,,
8h[8:1],,,,
{16}3h[32:3],{32},4,{16}3,25,1,8,
73,,
{16}6h[32:3],{32},5,{16}6,74,8,1,
26,,
{16}4h[32:3],{32},5,{16}3,26,1,8,
37,,
{16}5h[32:3],{32},4,{16}6,73,8,1,
62,,
{16}45,{32}3,4,2,,
6,5,7,,
3,4,1,,
6,5,8,,
3,5,1,,
6,4,8,,
3,5,1,7,
3,5,
{16}2,2h[16:1],4,4h[16:1],5,5h[16:1],7,7h[16:1],2h[16:1],4h[16:1],5-1[16:1],7h[16:1],1h[16:1],4h[16:1],5b,,
{16}7v4[12:1]/2h[16:2],,5-8[16:1],4,3h[8:1],,,,7-2[12:1]/2,,8/1v6[16:1],,2,3h[8:1],,,
{16}2v5[12:1]/7h[16:2],,4-1[16:1],5,6h[8:1],,,,2v3[12:1]/7,,6/3-5[24:1],,6,7h[8:1],,,
{16}7v4[12:1]/2h[16:2],,5-8[16:1],4,3h[8:1],,,,2-7[12:1]/7,,1/8v3[16:1],,7,6h[8:1],,,
{16}2,2h[16:1],4,4h[16:1],6,6h[16:1],8,8h[16:1],2h[16:1],4h[16:1],5-1[16:1],7h[16:1],1h[16:1],4h[16:1],5,,
{16}7bv4[12:1]/2b-5[12:1],,5-1[16:1],4,,,,,2v7[12:1]/7,,1/8-3[16:1],,7,6h[8:1],,,
{16}2v5[12:1]/7-4[12:1],,4-8[16:1],5,,,,,7v4[12:1]/2,,5/4-6[16:1],,3,2h[8:1],,,
{16}7-4[12:1]/2-5[12:1],,5q1[16:1],4,,,,,7v2[12:1]/2,,8/1-4[16:1],,2,3h[8:1],,,
{16}1,1h[16:1],3,3h[16:1],5,5h[16:1],7,7h[16:1],1h[16:1],3h[16:1],5-1[16:1],7h[16:1],1h[16:1],4h[16:1],5b,,
{16}7,,8<4[8:1]/2,3,
,4,3,2,
1h[8:1],,3h[8:1],,
5,,46,,
{16}2,,1>5[8:1]/7,6,
,5,6,7,
8h[8:1],,6h[8:1],,
2x,1x,8x,7x,
{16}6xh[8:3]/2x,,,1,
8x>6[4:1],7x,5x,4x,
3xh[4:1]/8x,,,,
,,7,8,
{16}1-6[8:1],,2,,
3-8[8:1],,4,,
5>1[8:1],,6,,
7bh[8:1],,,,
{16}6h[8:1]/8,,5V31[8:1],47,
,8,7,6,
5V71[8:1],,8,,
2h[8:1]/5,,,3,
{16}24,,4V68[8:1],35,
,1,2,3,
4V28[8:1],,1,,
8,7,6,5,
{16}4xh[8:1]/8xV24-6[4:1],,,4,
5,6,7,8,
1xh[8:2],,5xh[8:2],,
,,7,6,
{8}5/3-6[8:1],2,1-4[8:1],8,
7V16b[16:3],6,3h[8:1],,
{4}Ch[4:1],{12}E8,E7,E6,E2,E3,E4,E1,C,E5,
{4}Ch[4:1],{12}D8,D7,D6,D2,D3,D4,E1,C,E5,
{4}Ch[4:1],{12}A8,A7,A6,A1/A5,A2,A3,A4/D1,C,D5,
{4}Ch[16:3],{16},,B5,B4,{8},,,{16}18,18,
{16}2b-5[16:1]/7b,,1,8,{32}2/7-4[16:1],,,8,,,1,,7/2v5[16:1],,,1,,,8,,{16}27,8,8,,
{16}C,7,6h[8:1],5,{32}4-1[12:1],,,3,,,6,,4/5-8[12:1],,,6,,,3,,{16}54,3,2h,2h,
{16},7,8h[8:1],1,{32}2-5[12:1],,1,1,,8,,,2/7v4[12:1],,8,8,,1,,,{16}27,1,1,1,
{16},7,7h[16:1],6h[16:1],5h[16:1],
4h[16:1],3h[16:1],2h[16:1],
{8}1x-5[16:1],8x-4b[16:1]/7x,1xb/3x,8xb/6xh[8:1],
{16}3h[32:3],{32},4,{16}2,15,6,6,
5/7,4,
{16}8h[32:3],{32},1,{16}7,26,3,3,
24,1,
{16}6h[32:3],{32},5,{16}7,84,3,3,
24,5,
{16}1h[32:3],{32},8,{16}2,73,6,54,
3h[8:2],,
{16},2,1>4[12:1],8,7,6,6h[8:2],,,7,8<5[12:1],1,2,3,3,,
{16}1,1h[16:1],3,3h[16:1],5,5h[16:1],7,7h[16:1],1h[16:1],3h[16:1],5-1b[16:1],7h[16:1],1h[16:1],3h[16:1],5b,,
