&title=Destr0yer[DX]
&artist=削除 feat. Nikki Simmons
&first=-2.605
&lv_6=14
&des_6=EY
&inote_6=
(90){4},,,,5h[16:3]/4h[16:3],
3h[2:1]/6h[16:29],{16},,,,,E2h[16:5],{8},,,{4}E4h[8:3],
{16},,,{32}E3,B1,{4}E8h[4:1],
{16},E6h[16:7],,E4h[16:5],{8},,,,,{16}B7/B6,B2/B3,
{8},Ch[16:13],{4},,,{1}B4/B5/B1/B8/A2/A7/A6/A3/E8/E2/E6/E4/E5/E1/Cfh[4:3]/D3h[4:3]/D7h[4:3]/B2h[4:3]/B3h[4:3]/B6h[4:3]/B7h[4:3],
{8}1h[8:1]/8-6[16:1],{16}6-4-8[0.5##0.3267],2h[16:1],,3h[8:1],{8},5h[8:1]/4>2[16:1],{16}2-8-4[0.5##0.3267],6h[16:1],,7h[8:1],{8},8h[8:1]/1-3[16:1],
{16}3<5p1[0.5##0.3267],7h[16:1],,6h[8:1],{8},4h[8:1]/5<7[16:1],{16}7-1p5[0.5##0.3267],3h[16:1],,2h[8:1],{8},{16}3/6,
3,5/4,5,6/2,3,3/7,6/2h[8:1],,5,E6,E2,B8/B7/E8,E4/B3/B4,,8/1,
7/2,7,1/8,1,2/6,7,7/3,6/2h[8:1],,7,E8/B7/B8,B3/E4/B4,{32}E1,E8,E7,E6,E5,E4,E3,E2,
{8}8x/1x-7-3-1[16:3],{16}3/7-3-1[0.5##0.3267],7,,6h[8:1],{8},5/4-6p2-4[16:3],{16}2/6p2-4[0.5##0.3267],6,,7h[8:1],{8},8/1<7q3>1[16:3],
{16}3/7q3-1[0.5##0.3267],7,,6h[8:1],{8},4/5>3-7-5[16:3],{16}7/3-7<5[0.5##0.3267],3,,2h[8:1],{8},{16}8/1,
7,2/6,7,3/6,7,4/5,7/2h[8:1],,8,E6/B5/B6,E2/B2/B1,{32}E5,E4,E3,E2,E1,E8,E7,E6,
{16}5x/4x,3,6/2,3,7/2,3,8/1,3/6h[8:1],,4,E4/B4/B3,E8/B7/B8,{32}E1/B1,E2/B2,E3/B3,E4/B4,E5/B5,E6/B6,E7/B7,E8/B8,
{1}Cfh[4:3]/B2h[4:3]/B6h[4:3]/B3h[4:3]/B7h[4:3],
{8}1/8z4-2-8[16:7],2/7,8/4-2-8-6-4[8:3],{16}2,2h[8:1],{8},4-8[8:1],B7/B6/E7,B2/B3/E3,
4z8<6-4[16:7],6/3,4/8<6-4>2-8[8:3],{16}6,6h[8:1],{8},8-4[8:1],B3/B2/E3,{16}B6/B7/E7,C,
{8}1s5>4-2[64:25],7/2,1/5>4-2<8-6>5[8:3],{16}7,7h[8:1],{8},{16}5-1[8:1],B2/B3/E3,B7/B6/E7,{8},{16}C,
{8}4,5/3,6/2>3<4<5<6<7>8>1>2[0.5##0.6667],{16}8/4,6/2,{8},C,{16}5s1[8:1]/1z5[8:1],7/3,{8},{4}1b/5b,
{8}1/2,{16}8/3h[16:7],B7h[8:1]/B8h[8:1],{8},B6h[8:1]/B5h[8:1],{16},C,,2h[8:1]/6h[8:1],
,,,8s4<5[8:1],7z3>2[0.5##0.3267],{8},{16}8/7,{8},{16}A1/A6,E7/E1,B7h[8:1]/B8h[8:1],{8},{16}6x,
{4}5h[8:1]/2qq7[16:3],{16}2/4,5h[8:1],{4},{8}5/4,4/3,{16}3/2pp6[16:3],2/1,
,1,{8}2/8h[8:1],{16},7,,6/4,,5b/4,,6b/5,6/7b-2[8:1],8b/7,{8},{4}2/7-4[8:1],
{8}4/7,3,2/4<7[8:1],{16}A8/E1,B1/E2,{8}4/2x-7[8:1]*v8[8:1],3,
{4}2w6[8:1],2x<6-8[64:17],{8}2/6-8v1[0.5##0.5],{16}E6/B5,B4/E4,{4}3xv6[8:1]*-6[8:1],
3w7[8:1],3<7-5[64:19],{8}3/7-5v4>7[0.5##1.5],{16}E1/B8,B1/E2,{8}B2/B3/E3,{16}B8/B7/E8/E1/B1,Ch[16:5],
{8},,,{16}5/4,3-5-2[8:1],,2-7[8:1],6,3,{8},6p8[0.3267##0.3267],
{4}6qq4<5<6[8:1]/2qq8>1>2[8:1],6/2p4[8:1],{8}6/2,{16}E2/B1,B8/E8,{4}7xq3[8:1]/3xq7[8:1],
3-1<8<7[8:1]/7-5>4>3[8:1],3/7q5-8[32:9],{8}5-8qq6[0.5##0.5],{16}A4/D4,A3/D3,{8}A2/D2,1,
{4}8q5[8:1]/1p4[8:1],1/8p3p6p1p4p7p2p5p8b[8:11],{8}8/1,C,,Ch[1:1],
{1},{4}A5/D6/D5/A4/D4/D2/A1/D1/A8/D8/E5/E1/E2/E8/E6/E4/A2/A3/B1/B8/B4/B5/A6/A7/Cfh[4:3]/D7h[4:3]/D3h[4:3]/E7h[4:3]/E3h[4:3]/B3h[32:23]/B2h[4:3]/B7h[4:3]/B6h[4:3],
{2},{16}E1/B8/B1,B5/E5/B4,A8/B8/E1/B1/A1/D1,B5/A5/E5/B4/A4,
{32}3h[16:5],E7/B6/B7,E8/B8,B1/E2/E1,E3/B2,B4/B3/E4,B5/E5,E6/B6/A6,A7/D8/E7/D7,A8/E8/D8,A1/E1/D1,E2/B1/D2,{8}3/Cf,1xq6[32:3]/2xp5[32:3],8v3[32:3]/7v4[32:3],1/2,8/7,
5/1p5[32:3]*q5[32:3],3/7,1,7h[8:1],2-6b[8:1],8/4,{32}2b/D2/D3/E2/E3,B1/B3,B8/B4,B7/B5,{8}8/E7/E6/D7/D6,
{32}2/7h[16:5],E3/B2/B3,E4/B4,B5/E6/E5,E7/B6,B8/B7/E8,B1/E1,E2/B2/A2,A3/D4/E3/D3,A4/E4/D4,A5/E5/D5,E6/B5/D6,{8}7/Cf,{4}B4h[16:3]/B3h[16:3]/B5h[16:3]/B6h[16:3],{8}2/7,8w4[8:1]/1w5b[8:1],
,8/1,A6/A5/A4/A3/D6/D4/D5,{32}3,7,2,6,3-7b[8:1],7,1,5,3,7,2,6,3b/D3/D4/E3/E4,B2/B4,B1/B5,B8/B6,{8}E8/E7/D7/D8,
{32}3/6h[32:13],E3/B3/E4,B2/E2/B1,E1/B8/E8,B7/B6/E7,E6/B5/E5,B4/E4/B3,E3/B2/E2/A2/D2,E1/A1/D1/A8,D8/E8/A7,D7/E7/B6/B7,C,B2/B3/D3/E3,E4/D4/A3,A4/E5,D5/A5,{8}4x-6v7-1[8:1]/5x-3v2-8[8:1],6/3,{4},{8}5xv2[32:3]/6xp1[32:3],
4v7[32:3]/3q8[32:3],5/6,4/3,{16}2-6b[8:1],{8},{16}2,{32}2b/8/E2/E3/D2/D3,B1/B3,B8/B4,B7/B5,{8}D7/D6/E7/E6,
3/5s1[8:1],2/6,{16}5<8[8:1]*>2[8:1],C,{8}A1,{16}5p8[0.5##0.3267]*q2[0.5##0.3267],{8},{16}5x,{8},1/C,
{32}4b,5,3,6,4,5,2,7,4,5,1,8,4,5,2,7,4,5,3,6,4,5,4,5,{8}B8/B7/B6/B5/B4/B3/B2/B1/Cf,{16}8/1,1,
{4}7/2h[4:1],{8}E7/B6/B7/C,{16}3/6,6,{32}4/5h[16:3],E4,B3,B2,B1,B8,{16}B7/E8/A7,,6/8,,7/1h[16:5],
{4}E8/B7/B8,{16}B6/E6/B5/C,2,3/7,4/6,{8}5,{16}B5/B4/E5,B2/E2/B1/C,,8b/3,4b/7,6bh[16:3]/5h[16:3],
{4},{8}B3/E4/A3/B6/E6/A6,{16}B7/E8/A7/E2/B2/A2,8V24[8:1]/1V35[8:1],,4-6-8[8:1]/5V71[8:1],,8/1,,A4/A5/D5/E5,{8},{32}3bx,
4x,1x,6,2x,5,8,7,5,6,3,8,4,7,2,1,3,8,4,7,5,6,3,4,2,5,4,6,{16}5/3,4/6,
{8}7/5v8[8:1],B3/B7/E7/B6/B2/E3,7/5,{16}5,2/4pp6[0.8267##0.3267],,B3/B2/E3,{8}B6/E6/B5/E2/B1/E1,4/2,{16}1,8/2,
{8}3/1>2-6[8:1],B7/E8/B8/B4/B3/E4/E5/B5/E1/B1,{16}3/1,{8},{16}1/7,{8}6/8,{16}B2/B7/E3/B3/E7/B6,5xq8[8:1]/4xp1b[8:1],,7/2b,6b/3,5/4b,
{4},{16}B1,E3h[16:11],,B8,{8},B7,{16}B6,E5h[16:3],{8},,,{16}B5,
E7h[16:9],,B4,{8},B3,{16}B2,E1,{8},{4}B1h[1:2],
B2h[4:7],B3h[2:3],B4h[4:5],
B8h[1:1],B7h[4:3],B6h[2:1],B5h[4:1],
Cf,{2},{64}5b/4b,3/6,2/7,1/8,{16},,,{8}1h[8:1]/8-6[16:1],
{16}6-4<8[0.5##0.3267],2h[16:1],,3h[8:1],{8},{16}5xh[8:1]/4x<7[8:1],{8},{16}6h[16:1],{32},,,,,4/A8,5/A1,6/A2,
{8}7h[32:19]/A3h[32:19],{2},{32}2/6,1/5,8/4,7/3,6h,5h,4h,3h,{8}2bh[8:1]/6bh[8:1],
,{32}1h,8,1,8,2h,7,2,7,3h,6,3,6,4q1b[32:3],5,4,5,3s7b[32:3],6,3,6,{8}4b,3b,
8xh[16:1]/2xh[16:1],{32}1,7,3,8,2,6,4,5,3,7,1,6,2b,8,7,6,5p7[32:3]/4q2[32:3],3,2,1h/8h,7,6,5,4,{8}A5/A4,
{16}1xh/8xh,{32}7,4,6,5,{16}6h[16:1],B5/E5/B4,{32}3,8,2,1,{16}2h[16:1],{32}1-6v5[8:1],8,7,6,2,3,4,5,{16}1,Ch[8:1],{8},{16}4xh/5xh,
{32}6,1,7,8,{16}6h[16:1],B8/E1/B1,{32}2,5,3,4,{16}2h[16:1],{32}4-7v8[8:1],5,6,7,3,2,1,8,{16}4,Ch[8:1],{8},5h[16:1]/4h[16:1],
{32}5,3,6,4,{64}5h[16:1]/B4,C,B8,A8,{16},{32}1,7,2,8,{64}1h[16:1]/B8,C,B4,A4,{16},{32}7,3,6,2,{64}E2/E6,B1/B5,B8/B4,D8h[64:5]/D4h[64:5],{16},{32}D1/D5/A1/A5,D2/D6/A2/A6,E3/B3/B7/E7,B8/B1/B4/B5,
1bx,5x,8,4x,7x,3,6,2,7,3,5,1,6,2,8,4,6h,3h,5h,2h,7h,1h,6h,4h,7h,3h,5h,4h,{16}8b<6>3>8b[8:7]/1b-3-5-7-1[8:7],2bh/7bh,
{8}3b/6b,A8/A1,{16},,,,,,,,,,,,,,,B6/B5/B8/B7,
{4},{16}B1/B2,{8},{16}B3/B4,{8},C,
{16}E6/E5/E1/E2,{8},{16}E3/E4/E8/E7,{4},{8}A1/A5,{16}A2/A6,A3/A7,{4}A8h[8:1]/A4h[8:1],
{8}E6h[8:3],{16}E1/B1/E2,B2/E3,{8},B3/E4/B4,B8/E8/B7/E2h[8:3],E7/B6/E6,{4}B5/E5/B4,
1/8h[4:1],2h[4:1],{8}6h[8:3],{16}3,4,{4}5h[8:1],
5/4h[4:1],6h[4:1],{8}2h[8:3],{16}7,8,{4}1h[8:1],
2/6h[4:1],3h[4:1],{8}7h[8:3],{16}1,2,{4}3h[8:1],
{8}4/5h[16:3],{16}3,3h[16:3],{8},6,B7/B6/E7/B2/B3/E3,C,{4}8z4[8:1]/1s5[8:1],
E
&lv_7=蔵
&des_7=EY
&inote_7=
(90){4},,,,5h[16:3]/4h[16:3],
3h[2:1]/6h[16:29],{16},,,,,E2h[16:5],{8},,,{4}E4h[8:3],
{16},,,{32}E3,B1,{4}E8h[4:1],
{16},E6h[16:7],,E4h[16:5],{8},,,,,{16}B7/B6,B2/B3,
{8},Ch[16:13],{4},,,{1}E8/E6/D5/E5/E4/E2/A5/A4/D6/D4/D2/A1/E1/D1/A8/D8/Cfh[4:3]/B2h[2:1]/B3h[2:1]/B6h[2:1]/B7h[2:1]/D3h[4:3]/D7h[4:3]/B8h[4:1]/B1h[4:1]/B5h[4:1]/A3h[4:1]/A6h[4:1]/A2h[4:1]/A7h[4:1]/B4h[4:1],
{8}1h[8:1]/8-6[16:1],{16}6-4-8[0.5##0.3267],2h[16:1],,3h[8:1],{8},5h[8:1]/4>2[16:1],{16}2-8-4[0.5##0.3267],6h[16:1],,7h[8:1],{8},8h[8:1]/1-3[16:1],
{16}3<5p1[0.5##0.3267],7h[16:1],,6h[8:1],{8},4h[8:1]/5<7[16:1],{16}7-1p5[0.5##0.3267],3h[16:1],,2h[8:1],{8},{16}3/6,
3,5/4,5,6/2,3,3/7,6/2h[8:1],,5,E6,E2,B8/B7/E8/E1/E7,E3/E4/B3/B4/E5,,8/1,
7/2,7,1/8,1,2/6,7,7/3,6/2h[8:1],,7,E8/B7/B8,B3/E4/B4,{32}A8/B8,A7/B7,A1/B1,A2/B2,A6/B6,A5/B5,A3/B3,A4/B4,
{8}8x/1x-7-3-1[16:3],{16}3/7-3-1[0.5##0.3267],7,,6h[8:1],{8},5/4-6p2-4[16:3],{16}2/6p2-4[0.5##0.3267],6,,7h[8:1],{8},8/1<7q3>1[16:3],
{16}3/7-3>1[0.5##0.3267],7,,6h[8:1],{8},4/5>3-7-5[16:3],{16}7/3q7-5[0.5##0.3267],3,,2h[8:1],{8},{16}8/1,
7,2/6,7,3/6,7,4/5,7/2h[8:1],,8,E8/B8/B7,E4/B3/B4,{32}A5/A6,B5/B6,A4/A3,B4/B3,B7/B8,A7/A8,B1/B2,A1/A2,
{16}5x/4x,3,6/2,3,7/2,3,8/1,3/6h[8:1],,4,E4/B4/B3,E8/B7/B8,{32}A1/A2,B1/B2,A8/A7,B8/B7,B3/B4,A3/A4,B5/B6,A5/A6,
{1}Cfh[4:3]/B2h[4:3]/B4h[4:3]/B6h[4:3]/B8h[4:3],
{8}1/8z4-2-8[16:7],2/7,8/4-2-8-6-4[8:3],{16}2,2h[8:1],{8},4-8[8:1],B7/B6/E7,B2/B3/E3,
4z8<6-4[16:7],6/3,4/8<6-4>2-8[8:3],{16}6,6h[8:1],{8},8-4[8:1],B3/B2/E3,{16}B6/B7/E7,C,
{8}1s5>4-2[64:25],7/2,1/5>4-2<8-6>5[8:3],{16}7,7h[8:1],{8},{16}5-1[8:1],B2/B3/E3,B7/B6/E7,{8},{16}C,
{8}4,5/3,6/2>3<4<5<6<7>8>1>2[0.5##0.6667],{16}8/4,6/2,{8},C,{16}5s1[8:1]/1z5[8:1],7/3,{8},{4}1b/5b,
{8}1/2,{16}8/3h[16:7],B7h[8:1]/B8h[8:1],{8},B6h[8:1]/B5h[8:1],{16},C,,2h[8:1]/6h[8:1],
,,,8s4<5[8:1],7z3>2[0.5##0.3267],{8},{16}8/7,{8},{16}A1/A6,A8/A7,B8h[8:1]/B7h[8:1]/Ch[8:1],{8},{16}6x,
{4}5h[8:1]/2qq7[16:3],{16}2/4,5h[8:1],{4},{8}5/4,4/3,{16}3/2pp6[16:3],2/1,
,1,{8}2/8h[8:1],{16},7,,6/4,,5b/4,,6b/5,6/7b-2[8:1],8b/7,{8},{4}2/7-4[8:1],
{8}4/7,3,2/4<7[8:1],{16}A8/E1,B1/E2,{8}4/2x-7[8:1]*v8[8:1],3,
{4}2w6[8:1],2x<6-8[64:17],{8}2/6-8v1[0.5##0.5],{16}E6/B5,B4/E4,{4}3xv6[8:1]*-6[8:1],
3w7[8:1],3<7-5[64:19],{8}3/7-5v4>7[0.5##1.5],{16}E1/B8,B1/E2,{8}B2/B3/E3,{16}B8/B7/E8/E1/B1,Ch[16:5],
{8},,,{16}5/4,3-5-2[8:1],,2-7[8:1],6,3,{8},6p8[0.3267##0.3267],
{4}6qq4<5<6[8:1]/2qq8>1>2[8:1],6/2p4[8:1],{8}6/2,{16}E2/B1,B8/E8,{4}7xq3[8:1]/3xq7[8:1],
3-1<8<7[8:1]/7-5>4>3[8:1],3/7q5-8[32:9],{8}5-8qq6[0.5##0.5],{16}A4/D4,A3/D3,{8}A2/D2,1,
{4}8q5[8:1]/1p4[8:1],1/8p3p6p1p4p7p2p5p8b[8:11],{8}8/1,C,,Ch[1:1],
{1},{4}A5/D6/D5/A4/D4/D2/A1/D1/A8/D8/E5/E1/E2/E8/E6/E4/Cfh[4:3]/D7h[4:3]/D3h[4:3]/B7h[2:1]/B2h[2:1]/B6h[2:1]/B3h[2:1]/E7h[4:3]/E3h[4:3]/B1h[4:1]/B8h[4:1]/B4h[4:1]/B5h[4:1]/A3h[4:1]/A2h[4:1]/A7h[4:1]/A6h[4:1],
{2},{16}E8/B8/B7,B6/E6/B5,B4/E4/B3,B1/E2/B2,
{32}6/3h[16:5],E7/B6/B7,E8/B8,B1/E2/E1,E3/B2,B4/B3/E4,B5/E5,E6/B6/A6,A7/D8/E7/D7,A8/E8/D8,A1/E1/D1,E2/B1/D2,{8}3/Cf,1xq6[32:3]/2xp5[32:3],8v3[32:3]/7v4[32:3],1/2,8/7,
1>2-4<5[8:1]*q5[8:1],3/1,5/1,6h[8:1],2-6b[8:1],8/4,{32}2b/D2/D3/E2/E3,B1/B3,B8/B4,B7/B5,{8}8/E7/E6/D7/D6,
{32}2/7h[16:5],E3/B2/B3,E4/B4,B5/E6/E5,E7/B6,B8/B7/E8,B1/E1,E2/B2/A2,A3/D4/E3/D3,A4/E4/D4,A5/E5/D5,E6/B5/D6,{8}7/Cf,{4}B4h[16:3]/B3h[16:3]/B5h[16:3]/B6h[16:3],{8}2/7,8w4[8:1]/1w5b[8:1],
,8/1,A6/A5/A4/A3/D6/D4/D5,{32}3,7,2,6,3-7b[8:1],7,1,5,3,7,2,6,3b/D3/D4/E3/E4,B2/B4,B1/B5,B8/B6,{8}E8/E7/D7/D8,
{32}3/6h[32:13],E3/B3/E4,B2/E2/B1,E1/B8/E8,B7/B6/E7,E6/B5/E5,B4/E4/B3,E3/B2/E2/A2/D2,E1/A1/D1/A8,D8/E8/A7,D7/E7/B6/B7,C,B2/B3/D3/E3,E4/D4/A3,A4/E5,D5/A5,{8}4x-6v7-1[8:1]/5x-3v2-8[8:1],6/3,{4},{8}5xv2[32:3]/6xp1[32:3],
4v7[32:3]/3q8[32:3],5/6,4/3,{16}2-6b[8:1],{8},{16}2,{32}2b/8/E2/E3/D2/D3,B1/B3,B8/B4,B7/B5,{8}D7/D6/E7/E6,
3/5s1[8:1],2/6,{16}5<8[8:1]*>2[8:1],C,{8}A1,{16}5p8[0.5##0.3267]*q2[0.5##0.3267],{8},{16}5x,{8},1/C,
{32}4b,5,3,6,4,5,2,7,4,5,1,8,4,5,2,7,4,5,3,6,4,5,4,5,{8}B8/B7/B6/B5/B4/B3/B2/B1/Cf,{16}8/1,1,
{4}7/2h[4:1],{8}E7/B6/B7/C,{16}3/6,6,{32}4/5h[16:3],E4,B3,B2,B1,B8,{16}B7/E7/B6/C,,6/8,,7/1h[16:5],
{4}E8/B7/B8,{16}B6/E6/B5/C,2,3/7,4/6,{8}5,{16}B5/B4/E5,B2/E2/B1/C,,8b/3,4b/7,6bh[16:3]/5h[16:3],
{4},{8}B3/E4/A3/B6/E6/A6,{16}B7/E8/A7/E2/B2/A2,8V24[8:1]/1V35[8:1],,4-6-8[8:1]/5V71[8:1],,B7/B6/C,,C/B2/B3,{8},{32}3bx,
4,1,6,2,5,8,7,5,6,3,8,4,7,2,1,3,8,4,7,5,6,3,4,2,5,4,6,{16}5/3,4/6,
{8}7/5v8[8:1],B3/B7/E7/B6/B2/E3,7/5,{16}5,2/4pp6[0.8267##0.3267],,B3/B2/E3,{8}B6/E6/B5/E2/B1/E1,4/2,{16}1,8/2,
{8}3/1>2-6[8:1],B7/E8/B8/B4/B3/E4/E5/B5/E1/B1,{16}3/1,{8},{16}1/7,{8}6/8,{16}B2/B7/E3/B3/E7/B6,5xq8[8:1]/4xp1b[8:1],,7/2b,6b/3,5/4b,
{4},{16}B1,E3h[16:11],,B8,{8},B7,{16}B6,E5h[16:3],{8},,,{16}B5,
E7h[16:9],,B4,{8},B3,{16}B2,E1,{8},{4}B1h[1:2]/B2h[1:2],
B3h[4:7]/B4h[4:7],B5h[2:3]/B6h[2:3],B7h[4:5]/B8h[4:5],
E2h[1:1]/E3h[1:1],E4h[4:3]/E5h[4:3],E6h[2:1]/E7h[2:1],E8h[4:1]/E1h[4:1],
Cf,{2},{64}5b/4b,3/6,2/7,1/8,{16},,,{8}1h[8:1]/8-6[16:1],
{16}6-4<8[0.5##0.3267],2h[16:1],,3h[8:1],{8},{16}5xh[8:1]/4x<7[8:1],{8},{16}6h[16:1],{32},,,,,4/A8,5/A1,6/A2,
{8}7h[32:19]/A3h[32:19],{2},{32}2/6,1/5,8/4,7/3,6h,5h,4h,3h,{8}2bh[8:1]/6bh[8:1],
,{32}1h,8,1,8,2h,7,2,7,3h,6,3,6,4q1b[32:3],5,4,5,3s7b[32:3],6,3,6,{8}4b,3b,
8xh[16:1]/2xh[16:1],{32}1,7,3,8,2,6,4,5,3,7,1,6,2b,8,7,6,5p7[32:3]/4q2[32:3],3,2,1h/8h,7,6,5,4,{8}A5/A4,
{16}1xh/8xh,{32}7,4,6,5,{16}6h[16:1],B5/E5/B4,{32}3,8,2,1,{16}2h[16:1],{32}1-6v5[8:1],8,7,6,2,3,4,5,{16}1,Ch[8:1],{8},{16}4xh/5xh,
{32}6,1,7,8,{16}6h[16:1],B8/E1/B1,{32}2,5,3,4,{16}2h[16:1],{32}4-7v8[8:1],5,6,7,3,2,1,8,{16}4,Ch[8:1],{8},5h[16:1]/4h[16:1],
{32}5,3,6,4,{64}5h[16:1]/B4,C,B8,A8,{16},{32}1,7,2,8,{64}1h[16:1]/B8,C,B4,A4,{16},{32}7,3,6,2,{64}E2/E6,B1/B5,B8/B4,D8h[64:5]/D4h[64:5],{16},{32}D1/D5/A1/A5,D2/D6/A2/A6,E3/B3/B7/E7,B8/B1/B4/B5,
1bx,5x,8,4x,7x,3,6,2,7,3,5,1,6,2,8,4,6h,3h,5h,2h,7h,1h,6h,4h,7h,3h,5h,4h,{16}8b<6>3>8b[8:7]/1b-3-5-7-1[8:7],2bh/7bh,
{8}3b/6b,A8/A1,{16},,,,,,,,,,,,,,,B6/B5/B8/B7,
{4},{16}B1/B2,{8},{16}B3/B4,{8},C,
{16}E6/E5/E1/E2,{8},{16}E3/E4/E8/E7,{4},{8}A1/A5,{16}A2/A6,A3/A7,{4}A8h[8:1]/A4h[8:1],
{8}E6h[8:3],{16}E1/B1/E2,B2/E3,{8},B3/E4/B4,B8/E8/B7/E2h[8:3],E7/B6/E6,{4}B5/E5/B4,
1/8h[4:1],2h[4:1],{8}6h[8:3],{16}3,4,{4}5h[8:1],
5/4h[4:1],6h[4:1],{8}2h[8:3],{16}7,8,{4}1h[8:1],
2/6h[4:1],3h[4:1],{8}7h[8:3],{16}1,2,{4}3h[8:1],
{8}4/5h[16:3],{16}3,3h[16:3],{8},6,B7/B6/E7/B2/B3/E3,C,{4}8z4[8:1]/1s5[8:1],
E
