&title=Burn My Universe
&artist=麻枝 准×やなぎなぎ/スマートフォン向けRPG「ヘブンバーンズレッド」より
&first=0.01
&des=Ragna
&wholebpm=180
&demo_seek=
&demo_len=
&des_5=Ragna
&lv_5=13
&inote_5=(180){8},,,,,,,,
2x/6,2/6x,2x/6,2/6x,,4,4,5,
3,4,5,6,3/7x,3x/7,3/7x,3x/7,
,5,5,4,6,5,4,3,
2x/6,2/6x,2x/6,2/6x,,3,3,5,
4,3,5,6,3/7x,3x/7,3/7x,3x/7,
,6,6,4,5,3>5[2:1],,4bx,
,5<3[2:1],,4x,,3>5[2:1],,4bx,
,5<3[2:1],,4x,,3>5[2:1],,4bx,
,5<3[2:1],,4x,,3>5[2:1],,4bx,
,5-1[4:1]b,,4x,,6<4[2:1],,5bx,
,4>6[2:1],,5x,,6<4[2:1],,5bx,
,4>6[2:1],,5x,,6<4[2:1],,5bx,
,4>6[2:1],,5x,,6<4[2:1],,5bx,
,4-8[4:1]b,,5x,,3>5[2:1],,4bx,
,5<3[2:1],,4x,,3>5[2:1],,4bx,
,5<3[2:1],,4x,,3>5[2:1],,4bx,
,5<3[2:1],,4x,,3>5[2:1],,4bx,
,5-1[4:1]b,,4x,,6,,1bx/8hbx[4:9],
,3,2-6[8:1],,2,,7,7,
,6,7-3[8:1],,7,,2,2,
,1h[4:3],E8/B7,,E5,B6,,Ch[4:3],
,,,E2,,E4,,1,
8/2h[8:7],,3,,5,,8,8,
1/7h[8:7],,6,,4,,1,1,
8^5[2:1]/2,,2,,2,,2h[1:1],,
4,,5,,6,,7,,
3^6[2:1]/8,,8,,8,,8h[1:1],,
5,,4,,3,,2,,
1h[4:7]/B8,,B2,,B7,,B3,,
B6,,B4,,A5,,C,,
8h[1:1]/B1,,B7,,B2,,B6,,
4-2[8:1]*-6[8:1],,,,5-7[8:1]*-3[8:1],,,,
2b^5[2:1]/8b,,8,,8,,8h[1:1],,
6,,5,,4,,3,,
1^6[2:1]/2,,2,,2,,2h[1:1],,
5,,4,,3,,1,,
8h[4:7]/E3,,A4,,C,,A5,,
E1,,B6,,C,,5h[4:1],,
7h[4:1],,4h[4:1],,5h[4:1],,2h[4:1],,
4-2[8:1]*-8[8:1],,,,1,{16}7,7,{8}8b,,
1h[4:1],,2h[4:1],,3h[4:1],,4,4,
5h[4:1],,6h[4:1],,7h[4:1],,8,,
2,2,4,3,5-1[8:1],,65,,
7,7,5,6,4-8[8:1],,34,,
1h[4:1],,2h[4:1],,3,3,4,4,
3h[4:1],,2h[4:1],,1h[4:1],,8b,,
2,2,4,3,5-1[8:1],,65,,
8<4[4:1],,4>8[4:1],,8<4[4:1],,4,,
2V48[4:1],,C,,7V51[4:1],,C,,
4,4,6,6,15,62,73,8-4[8:1]/4,
,1-3[8:1]/8,,5-7-4-8[256:103]/1,,4-8-3-1[256:103]b/5,2bh[2:1],,
,,,,84,73,62,1-5[8:1]/5,
,8-6[8:1]/1,,4-2-5-1[256:103]/8,,5-1-6-8[256:103]b/4,7bh[2:1],,
,,,,15,6,74,3,
2-5[8:1]/6-1[8:1],,26,,84,3,25,6,
7-4[8:1]/3-8[8:1],,73,,15,6,74,3,
2-5[8:1]/5,,8-4[8:1]/2,,3-8[8:1]/8,,6>7[4:1]b/3,,
Cf/6b,,,,65,74,83,2/1^6[8:1],
,4^1[8:1]/1,,7-5-8-4[256:103]/4,,8-4-1-3[256:103]b/7,2bh[2:1],,
,,,,34,25,16,7/8^3[8:1],
,5^8[8:1]/8,,2-4-1-5[256:103]/5,,1-5-8-6[256:103]b/2,7bh[2:1],,
,,,,65,7,18,2,
1-5[8:1]/8-6[8:1],,18,,34,2,81,7,
8-4[8:1]/1-3[8:1],,81,,65,7,18,2,
3-8[8:1]/6,,4^7[8:1]/3,,1-5[8:1]/4,,8>7[4:1]b/1,,
Cf/8b,,,,83,72,1pp1[4:1]/6,,
15,,8qq8[4:1],,84,,1pp1[4:1],,
15,,8,,16,27,3^6[8:1]/8,,
36,,7p2[8:1],,72,,1>8[4:1]b,,
Cf/1b,,,,16,2,38,7,
6-1[8:1]/5-2[8:1],,65,,38,7,16,2,
3-8[8:1]/4-7[8:1],,34,,16,2,38,7,
1-6[8:1]/6,,7-4[8:1]/1,,3-8[8:1]/7,,6pp4[4:1]b/3,,
Cf/6b,,,,35,46,5V38[16:3]/7,,
56,,4V61[16:3],,43,,5V38[16:3],,
56,,4,,46,35,2/4-8-6[4:1],,
41,,5-1-3[4:1],,58,,4<3[4:1]b,,
Cf/4b,,,,24,3,64,7,
2-6[8:1]/8-4[8:1],,28,,75,6,35,2,
7-3[8:1]/1-5[8:1],,71,,24,3,64,7,
8-4[8:1]/1,,2-6[8:1]/8,,7^2[8:1]/2,,4q5<4[8:5]b/7,,
Cf/4b,,,,,,8h[4:1],,
1-4-7[2:1]*-4-7[2:1],,4-7-2[2:1]b,,7-2-5[2:1]*-2-5[2:1],,2-5-8[2:1]b,,
5-8-3[2:1]*-8-3[2:1],,8-3-6[2:1]b,,3-6[4:1]*-6[4:1],,6,,
8h[4:1],,5>7[4:1],,75,,4<2[4:1],,
42,,5-1[8:1]b,,5b/6,,8<3[4:1],,
8/3-8-4-7[2:1]b,,1,,4,,1>6[4:1],,
1/6-1-5-2[2:1]b,,8,,5,,8-4[8:1],,
1-3[8:1]/8,,8-6[8:1]/1,,1-5[8:1]/8,,
8w4[8:1]b/1,,8b,,,,{16}1x,2x,3x,4x,8x,7x,6x,5x,{8}
4x<3[16:7]/3x>4[16:7]b,,A4/A3/D4f,,,,,,
34,2,65,7,34,2,65,7,
81,7v4[8:1]/2-5[8:1],,27,,36,27,18,
2h[8:1]/7h[8:1],,7h[8:1]/2h[8:1],,{16}8x,7x,6x,5x,1x,2x,3x,4x,{8}
5x>6[16:7]/6x<5[16:7]b,,A6/A5/D6f,,,,,,
65,6,6,34,3,3,28,,
7/5h[8:1],7,7/1h[8:1],7,7/4h[8:1],7,7/6h[8:1],7,
1h[8:1]/8h[8:1],,1h[8:1]/8h[8:1],,{16}2x,3x,4x,5x,1x,8x,7x,6x,{8}
5x<4[16:7]/4x>5[16:7]b,,A4/A5/D5f,,,,,,
24,2,2,75,7,7,18,,6/5h[8:1],7,
1/8h[8:1],2,3/4h[8:1],2,8/1h[8:1],7,
65,65,45,34,25,16,78,,
1^4[8:1]/5,,1^6[8:1]/5,,5-1[8:1]/1,,8,8,
2h[16:1]/7,6/3h[16:1],5/4h[16:1],8/1h[16:1],2b/6x,2x-7[8:1]/6b-3[8:1]b,2b/6x,2x/6b,
,,,,,,,,
E
