&title=The 89's Momentum
&artist=MYUKKE
&first=0.961
&des_1=ZRICCO
&des_2=ZRICCO
&des_3=ZRICCO
&des_4=ZRICCO
&des_5=ZRICCO
&lv_5=13+
&des_6=ZRICCO
&des_7=ZRICCO
&des=ZRICCO
&inote_5=(128){4}4b/2bh[8:15],B3,,B3,
,B3,{8},,B5,6b,
{4}7bh[1:1],5,,5,
{32}6x,5x,4x,3x,2x,1x,8x,7x,{16}6x,5x,4x,3x,2x,5x,2x,5x,{8}1-5[8:1],2/7,
1,6,{16}8-6[8:1],8,,5,,,{8}4,{16}3,3,5,5,
{8}2h[8:1],{16}6,5,{8}7h[8:1],{16}1,1,5,4,{8}6-1[8:1],{4}7/5,
{8}2h[16:1],3h[16:1],4h[16:1]/6h[16:1],{16}5/3,5/3,,2,{8}6-1[12:1],{32}4x,3x,2x,1x,{8}6x,
2h[4:3],4,1,5,8,6,{4}7<8[4:1],
7b,{8}5x-2[8:1],4,7-4-7[4:1],6,{4}7/1,
2h[8:1],{8}6-1[8:1],5,6/3-8[8:1],4-7[8:1],,,1h[16:1],
3b-1[8:1],8,7/3-5[8:1],6V47[4:1],3,,,{4}3h[8:1],
{16}4,5,3,6,2-5[8:1],3,5-1[8:1],6,{4}2/7,
8bh[8:1],{8}3-8[8:1],4,3/5-8[8:1],5-2[8:1],,,{4}7h[8:1],
{8}3-8[8:1],4,3/6-1[8:1],5-2[8:1],6b,5b,
{4}7h[8:1],{16}4,5,3,3,6,5,7,7,{8}4h[8:1],1,
2-5[8:1],6,7-4[8:1],8,1-4b[8:1],1-6[8:1],{4}1b,
{8}3h[16:1],{16}5,5,1,8h[8:1],,4,,3,5,2,{8}7,8/4,
{16}3,6h[8:1],,1,1,7h[8:1],,4,,3,5,3,6,5,{8}8,
{16}2,2h[8:1],,5,3,6,5,7h[8:1],,1,1,5,{8}3h[8:1],7,
{16}2,5,4,5,4,7,3,6h[16:3],,8,8,5,1,7,{8}3,
8/1b-5[8:1],4h[4:1]/5b-8[8:1],{16},,,,3,3,7,2,6-8[8:1],6,3,3,
{8}6b,4bh[8:1],6,{16}2,8,1-5[8:1],1,7-4[8:1],7,,,,,{1}1xv6<8v3>1b[4:7],
{8},,,,,,,,8,
8h[8:7],{16},6,,,5,,,4,,,{8}3,
2h[8:3],5,6,7h[4:1],3,4,6/5,7,
{16}2h[1:1],,,4,,,{8}5,{16},6,,,{8}7,8,
1,3,4,5,6/4,7,{16}3,4,2,5,
{4}3-1[8:1],{48}3/B5,E5,,,,,{8}7,4/6,3,{48}2/B5,E5,,,,,{8}3,
4/6,3h[16:1],{48}2h[16:1]/B5,E5,,,,,{8}3h[16:1],4/6h[16:1],7h[16:1],{48}8h[16:1]/B5,E5,,,,,{8}7h[16:1],
{16}4,4,6,6,7,7,8,8,{32}1x,2x,3x,4x,5x,6x,7x,8x,{8}1bx,6bx,
4x-2[8:1],1x/8v5[8:1],5x/4<3[4:1],8,{4}4-8b[12:1],4b,
{8}3h[8:1],{16}6,5,{8}7,8/1-5[8:1],5V36[4:1],1/6xh,7xh,8xh,
1V74<8[2:1],5h[16:1],3h[16:1],2h[16:1],1h[16:1],3h[16:1],2,4,
2b/7b,{16}3,4,1,1,{8}5-3[12:1],4h[16:5],5x-7[12:1],{16},5xh,,,{8}1xh,
{16}6,5,{8}7,{16}3,4,{2}1-5[8:1]*-4[8:1],
{8}6h[8:1],{16}3,4,{8}2,1/8v5[8:1],5V74[4:1],8/3xh,2xh,1xh,
8>5V31[2:1],4h[16:1],6h[16:1],7h[16:1],8h[16:1],6h[16:1],7h[16:1],5,
7b/3b,{16}2,4,1,8,3,3,6,4,7,2,{8}6b,8b-4[8:1],
{16}3x,3,{8}8-6[8:1],{16}5x,5,{8}8,{4}4w8[8:1],4b,
{8}2b/6b,{16}3,4,1,1,7,3,6,5,{8}8V64[6:1],7/4,8,
{16},3,3,3,5,5,4,4,6-2[8:1],5,{8}8,{4}6b/7bh[8:1],
{16}1,4,3,3,6,5,8,1,4,3,{8}4>8[6:1],5/6,4,
{16},7,7,7,5,5,8,8,3-1[8:1],4,{8}1-6[8:1],{4}3b/2bh[8:1],
{8}4b,{16}3,3,6,5,8,8,{8}2h[8:1],{16}5,4,{8}7,2/8h[8:1],
{16}3,4,1,1,4,4,5,5,7-4[8:1],6,{8}8,{4}7b/1b,
{8}3h[8:1],{16}1,1,4,5,1,8,2,6,{8}6>8[4:1],7/8,6b/5b,
{16},5x,5x,5x,6,6,1,1,5w1[8:1],4,{8}6,{4}5b,
3h[4:3],{16}B2,,,B7,,,{8}B4,{4}B5/E6,
{8}6,6h[8:5],{16}B2,,,B7,,,{8}A3,B5/E5,3x,
{16}2xh[8:7],B7,,,E5,,,E1,,,{8}E4,{4}B5/E6,
{16}7h[4:3],B4,,,B8,,,E6,,,{8}A4,D3,1b/5b,
{4}3/B7/E8,B6/E7/3V15-2[8:3],B5/E6,B6/E7,
7/B3/E4,B2/E3/7V58-4[8:3],B1/E2,B2/E3,
{8}1/E4,1/B5,1/E7,1/A8,{16}2,2,7,7,{24}1s5[4:3],2,3,8,7,6,
,,,,,,,,,,,,,,,{8}6-1[8:1],7,6,
{4}2>8b[2:3],E8,,B6,
4,3,2,{8}1<4[8:1],5/4,
{4}1b/2b,{16}3,4,2,7,7-4-7[4:1],5,6,4,{8}7bx,3,
{16}2-5[8:1],8,{8}3,2/6-8[8:1],6x-4[8:1],6xv1-7[16:3],6x,,3b-5[8:1],
,3b-1[8:1],8,7/3b-5[8:1],6-8[8:1],3b/7-5[8:1],{16},,,,3,
3,7,1,4,5,3,6,2-5[8:1],8,5-1[8:1],6,{4}2bx,
{8}7bh[16:1],{16}2,5-2[8:1],3x,3,,5/6,,7,7,1,4x,3,5,4,
7,3,8,1,5x,7>2[8:1],3,4,,6,{8}6,5x,7/3,
{16}1,8,3,6,5x,8,3,3,5,5,4-8[8:1],6,{8}2x,4/5,
{16}7,7,5,6<5[16:5],3x,2/5,,6b,,,{8}3xh[16:1],1x,1x,
5/3h[16:1],{16}7,1,5x,3,7,1,4-7[32:3],2,{8}3-1[12:1],4bx,{16}3,5,
5,3,7,3,5x,1,6,6,2-5[8:1],3,8-4[8:1],7,{8}2bx,8,
1x,1x,{16}3x,4,3x,4x,,6x,7x,8x,{32}1x-5[8:1],2x,3x,4x,5x-8[8:1],6x,7x,8x,
{8}1x>4[8:1],4V28[4:1],1x,{16}7,7x,,5,{8}5x,6bx/1b,4,
{16}7x-4[8:1],,,7x/6x,5,4,3,2,1bx-5b[16:1]/4bx-7b[16:1],,,1b/4b,
E
