&title=かなしばりに遭ったら
&artist=あばらや
&first=0.03
&des=夢の屋
&wholebpm=154
&clock_count=4
&lv_5=13+
&lv_7=副
&inote_5=(154)
{1},
{4},
{24}E7,E6,
{8}E5/2,,2,,3x/B6,,4,,
{24}5h[24:3],,,,,6h[32:1],,,,7,,,
7x/B3,,,,,,8h[1:0]/1>3[32:5],,,,,,C,,,,,,
{8}4,,5x/E3,,6,,
{24}7/1,,,E7,B6,B5,B4,,,3,,,2xh[24:3],,,
{64},,,,5x,,,,,,,,5-7[32:3],,,,,,,,,,,,C,,,,,,,,,,,,,,,,
{8}1,,2x/B5,,3,,4/7,
{16}5,6,5,,7,,
{16}1xh[64:9]/B6,,,,8<5[32:5],1,,1x,8,,,,
2h[4:1],,,,4h[8:1],,,5,,4x/6,,3b-8-4[32:12]/7xb-2-6[32:12],
{4},,,
{16}B3,,,,5x,,,,4/6,,,,3/E6,,,3/B7,,,3/E1,,
2-4[32:4],,7,,2,,,,5,,,8/B3,,,4/B7,,
6x,,,,2/8,,,,7/B1,,,7/B3,,,7/B5,,
6<8[32:4],,5,,4/6,,,,1,,,2/B7,,,6/B3,,
4x,,,,4/5,,,,3/B7,,,2/B6,,,1/B5,,
8>1-3[32:4],,4,,8,,,,5,,,E1/E2,,,E5/E6,,
3x-8[16:2]/7x-4[16:2],,,,3/7,,,,
1x/5x,,,2/6,,,3h[4:1]/7,,,,4v2[16:3]*v6[16:3],,3/5,,,,,,,,
C,,,,
2/6,,3,,4/7,,8,,2-4[32:4],1,,1,2,,8,,
7-5[32:4],,7,,3h/7,,2,,1q5[32:5],5,,5,1,,6,,
7-3[32:5]b,,,,3/7,,,,2-5[32:5],4,2,4,2,,,,
6-1[32:5],,,,3x-8[32:5]/6,,,,3/7x-4[32:5],,,,1xh[4:1]/7,,,,
5x<7[32:4],,,,B1/B2,,,,3-6[32:5],8,,8,3,,,,
7,,5,,4h[8:1]/8,,,,1V35[32:6],2,,8,1,,,,
7-4[32:5],,,,B2/B3,,,,1,,1,,2/8,,3/7qq6qq5qq4[16:12]b,,,,
,,E2,,,,E1,,,,E8,,,,
1x-4[32:4],,,,B5/B6,,,,3x,4,2,5,3x,4,2,5,,,,,
B5/B6,,1,8,2,7,1,8,2xw6[32:5],,,,2,,,,
B4/B3,,,,6x,5,7,8,6x,5,7,8,,,,,
B1/B2,,,,Ch[4:1],,,,B3/B4,,,,
7x/5x,,7,,7/6,,7,,7/8,,7,,7/1,,1,,1/3x,,1,,1/7,,1,,
{24}2x,3,4,8x,7,6,1x,2,3,7x,6,5,1bs5[56#64:4]b*z5[56#64:4],,,,,,
{4},,,
{16}4x,3,2,1,8/7x,6,5,4,2x-5[32:4],,,,
{8}2V86[16:4]/Cf,,4xb>7[16:4],,,,5h[4:1],,8,
2h[8:1]/B6,,7h[8:1]/B3,,4,3/5,6/2,1>7[32:12]/7<1[32:12],,1/7,,,,
8x,7-3[32:5],1,7/2-8[32:4],,6-4[32:4]/2,
{16},1x,,,2,,3,,
{24}5x,6x,7x,8x/1x,2x,3x,5/4x-8[32:5]b,,,,,,
{8}8v2[32:4]*v6[32:4],,,,1x/7x,2/6,,
{16}4/8,,,3/7,,,2v5[32:4]/6v1[32:4],,,,,,,,
{24}4x/8x,7,6,5,4,3,2,1,8,7,6,5,
{8}4/3h[4:1],,4,3-1[32:4]/4,,3/4,
{16},8x-4[32:3],,,7b/8,,,,
{8},,5h[4:1]/3,,7-3[32:5],,5<8[32:5]/7,,
{16}B2,,3-6[32:4],,,,3/6xp3[32:12],,,7x<4[32:5],,,,,,,,,,,
{16}2,3,4,5,1q5[32:5],8,7,6,1,,,,7,,8/3-5[32:4],,,,8/3,,,
{24}7,,,,4/6,,,5,,,
{16}3,5,2,4,
{8}1h[2:1],,3pp4[32:5],,,,
{16}1,,1xV35[32:7],,,,1x/7,,,8x,,,1-5[32:5]/5x-1[32:5],,,,,,,,
{24}E2,E3,E4,E5,E6,E7,E8,E1,E2,E3,E4,E5,
{16}6h[4:1],,,,5,,7/8,,,,1x/6,,,2/5x,,,3x/4,,2,,5/6,,7,,
{64},
{16}1x-5[32:4]b/8x,,,,1b/8b,,,,4,6,3,5,2,4,1,7h[16:3],,,
8,,1/6,,2,5,3,4,2,5,3,4,2,5,1-4[32:4]b,,,,
1b/8b,,,,6,5,6,4,6,3,6,2h[16:3],,,
7,,1,8,1,8,2,6,4,7,3,5,2,6,1-3[32:3]b,,,,
1b/8b,,,,4,5,3,6,2,7,1,8h[16:3],,,
1,,4/5,,3,4,2,6,5,7,2,,2,1,2pp1[32:9],,,,2/8,,,,
7h[8:1],,,1/7,,,C,,2-4[32:4]/6-4[32:4],,,,2/6,,,,
4x,4h[1:0],4x,4h[1:0],4x>1[32:5],,,,4/8xq5[32:5]b,,,,
7b/8b,,,,6,5,6,7,6,4,6,8h[16:3],,,
7,8,5,4,8,1,4,3,1,2,3x,,2x/4x,,2x/8xq4[32:4]b,,,,
7b/8b,,,,5,6,4,5,3,4,2,3h[16:3],,,
2,1,3,8,4,7,5,6,3,7,2,6,1,7,8>3[32:4]b,,,,
7b/8b,,,,B7,B3,E6,B1,B6,E2,E8,B4,Ch[4:1],,,,E3,,,,
1,7,3,8,2,5,4,6,2-6[32:4],,,,2/7,,,,8xw4[32:8],,,,
{1},
{16}C,,,,4/5,,,,4/5,,,,3/C,,,7/C,,,1/C,,
2-4[32:4]/8-6[32:4],,2/8,,2/8,,,,
5,,,B4/B6,,,B2/B8,,1p5[32:5]*q5[32:5],,,,
1,,,,4/6,,,3/7,,,2/8,,1>3[32:4],,8,,
1/7,,,,6/4,,,7/B3,,,2/B7,,1-4[32:5],,,,
1/8,,,,6/B4,,,6/C,,,6/B8,,1-5[32:5],,2,,1/3,,,,
4,,,3/B7,,,6/B2,,1p4[32:5]/8q5[32:5],,,,1/8,,,,
3/6,,,2/7,,,1h[4:1]/8h[4:1],,,,,,C,,,,,,,,
{4}1xbV35V71V37V51[32:49]b,,,,,,,
{8}7x-4[32:4],,1bh[8:1]/7b,,
{16}2,,4,4,3,,,2/5,,,1/6,,7<4[32:5],,8,,
1h[8:1]/7qq3[32:12],,,,1-4[32:4],,1,,1,,,,
{32}2x/5x,,,,,,,,2b/5b,3x,4x,5x,6,7,8,1,
{16}5x,5,2x,2,4x,,3/5x,,2,4,3,5,4,6,3,5,2,,
{24}1/7,,,1-6[32:4]/7,2,3,,,,1b/4bh[8:1],,,,,,
{16}3/5,,2,2,1x/3,,,5/7,,,4/8,,
2-4[32:4],,6-8[32:4],,2V84-6[32:10]b,,6,,2,,,,7xh[8:1],,,,
{24}7x,6,5,4,3,2,1,8,7,3x,4,5,6,7,8,1,2,3,
6x,5,4,3,2,1,8,7,6,2x,3,4,5,6,7,8,1,2,
{4}Chf[4:1],2x>5[32:4],
{16}2b/8b,,,,5x/6x,,7,7,3,,6,,4/5,,3,3,5,,2,,
3/4,,5,5,1pp4[32:12],,7x/8x,,1/6x-1[32:4],,,,6,,,,
{32}8xb/3b,7x,6x,5x,4,3,2,1,
{16}4x,4,8x,8,3x,,2/6x,,
{24}1x,2,3,6x,5,4,2x,3,4,7x,6,5,
{16}2,,3/7,,4v1[64:9]/6v1[64:9],,,,
4b/6b,,,,2x/8x,,3,3,6,,1/7,,2,,5,5,3,,
2/4,,1,,8,8,2,,3/5,,1/7h[8:1],,,,
{24}2x,3,4,5,6,7,8,1,2,6x,5,4,3,2,1,8,7,6,
3x,4,5,6,7,8,1,2,3,7x,6,5,4,3,2,1,8,7,
{16}2x,2,6x,6,2b-6[32#128:3]b,
{8},,,,,,,,,,,
E
&inote_6=
&inote_7=(154)
{1},
{4},
{24}E7,E6,
{8}E5/2,,2,,3x/B6,,4,,
{24}5h[24:3],,,,,6h[32:1],,,,7,,,
7x/B3,,,,,,8h[1:0]/1>3[32:5],,,,,,C,,,,,,
{8}4,,5x/E3,,6,,
{24}7/1,,,E7,B6,B5,B4,,,3,,,2xh[24:3],,,
{64},,,,5x,,,,,,,,5-7[32:3],,,,,,,,,,,,C,,,,,,,,,,,,,,,,
{8}1,,2x/B5,,3,,4/7,
{16}5,6,5,,7,,
{16}1xh[64:9]/B6,,,,8<5[32:5],1,,1x,8,,,,
2h[4:1],,,,4h[8:1],,,5,,4x/6,,3b-8-4[32:12]/7xb-2-6[32:12],
{4},,,
{16}B3,,,,5x,,,,4/6,,,,3/E6,,,3/B7,,,3/E1,,
2-4[32:4],,7,,2,,,,5,,,8/B3,,,4/B7,,
6x,,,,2/8,,,,7/B1,,,7/B3,,,7/B5,,
6<8[32:4],,5,,4/6,,,,1,,,2/B7,,,6/B3,,
4x,,,,4/5,,,,3/B7,,,2/B6,,,1/B5,,
8>1-3[32:4],,4,,8,,,,5,,,E1/E2,,,E5/E6,,
3x-8[16:2]/7x-4[16:2],,,,3/7,,,,
1x/5x,,,2/6,,,3h[4:1]/7,,,,4v2[16:3]*v6[16:3],,3/5,,,,,,,,
C,,,,
2/6,,3,,4/7,,8,,2-4[32:4],1,,1,2,,8,,
7-5[32:4],,7,,3h/7,,2,,1q5[32:5],5,,5,1,,6,,
7-3[32:5]b,,,,3/7,,,,2-5[32:5],4,2,4,2,,,,
6-1[32:5],,,,3x-8[32:5]/6,,,,3/7x-4[32:5],,,,1xh[4:1]/7,,,,
5x<7[32:4],,,,B1/B2,,,,3-6[32:5],8,,8,3,,,,
7,,5,,4h[8:1]/8,,,,1V35[32:6],2,,8,1,,,,
7-4[32:5],,,,B2/B3,,,,1,,1,,2/8,,3/7qq6qq5qq4[16:12]b,,,,
,,E2,,,,E1,,,,E8,,,,
1x-4[32:4],,,,B5/B6,,,,3x,4,2,5,3x,4,2,5,,,,,
B5/B6,,1,8,2,7,1,8,2xw6[32:5],,,,2,,,,
B4/B3,,,,6x,5,7,8,6x,5,7,8,,,,,
B1/B2,,,,Ch[4:1],,,,B3/B4,,,,
7x/5x,,7,,7/6,,7,,7/8,,7,,7/1,,1,,1/3x,,1,,1/7,,1,,
{24}2x,3,4,8x,7,6,1x,2,3,7x,6,5,1bs5[56#64:4]b*z5[56#64:4],,,,,,
{4},,,
(77)
{32}3x,2,1,8,5x,6,7,8,1/2,,,,Cf,,,,
{16}5-1[64:5]/6-8[64:5],,1/8-4[64:5],,5/6,,
2,,3-7[64:5],,7-3[64:5],,3<2[64:14]b,,5,,5xbh[8:1],,,,
7-4[64:5],,3-8[64:5]/4,,7,,3,,7h[8:1],,
{48}8,1,2,3,4,5,
{16}6xq2[64:5],,2q6[64:5]*>5[64:5],,6,,,,
7-5[64:4],,3/4-8[64:5],,7,,4,,
{48}7x,6,5,4,3,2,1,8,7,6,5,4,
{16}3x-8[64:5],,8-4[64:5]*-5[64:5],,3,,,,3b<2[64:14]b,,4,,
3/5xbh[8:1],,,,6-8[64:5],,1-3[64:5]/8-4[64:5],,6,,1,,
5<4[64:14]*>6[64:14],,4/6,,5w1[64:5],,,,,,
3xv4[64:5]/7xv6[64:5],,4-1[64:5]/6-1[64:5],,3/7,,,,
2x/8x,,7b-3[64:4]/1b,,2,,1-5[64:5]/7,,5x<8[64:5]*>2[64:5],,1,,,,
1>7[64:12],,8,,1/7h[8:1],,,,8,,1/7,2/6,
(154)
{16},,3/5,,,,6,,3/4,,2,,5/6,,7,,
{16}1-5[32:4]b/8,,,,1b/8b,,,,4,6,3,5,2,4,1,7h[16:3],,,
8,,1/6,,2,5,3,4,2,5,3,4,2,5,1-4[32:4]b,,,,
1b/8b,,,,6,5,6,4,6,3,6,2h[16:3],,,
7,,1,8,1,8,2,6,4,7,3,5,2,6,1-3[32:3]b,,,,
1b/8b,,,,4,5,3,6,2,7,1,8h[16:3],,,
1,,4/5,,3,4,2,6,5,7,2,,2,1,2pp1[32:9],,,,2/8,,,,
7h[8:1],,,1/7,,,C,,2-4[32:4]/6-4[32:4],,,,2/6,,,,
4x,4h[1:0],4x,4h[1:0],4x>1[32:5],,,,4/8xq5[32:5]b,,,,
7b/8b,,,,6,5,6,7,6,4,6,8h[16:3],,,
7,8,5,4,8,1,4,3,1,2,3x,,2x/4x,,2x/8xq4[32:4]b,,,,
7b/8b,,,,5,6,4,5,3,4,2,3h[16:3],,,
2,1,3,8,4,7,5,6,3,7,2,6,1,7,8>3[32:4]b,,,,
7b/8b,,,,B7,B3,E6,B1,B6,E2,E8,B4,Ch[4:1],,,,E3,,,,
1,7,3,8,2,5,4,6,2-6[32:4],,,,2/7,,,,8xw4[32:8],,,,
{1},
{16}C,,,,4/5,,,,4/5,,,,3/C,,,7/C,,,1/C,,
2-4[32:4]/8-6[32:4],,2/8,,2/8,,,,
5,,,B4/B6,,,B2/B8,,1p5[32:5]*q5[32:5],,,,
1,,,,4/6,,,3/7,,,2/8,,1>3[32:4],,8,,
1/7,,,,6/4,,,7/B3,,,2/B7,,1-4[32:5],,,,
1/8,,,,6/B4,,,6/C,,,6/B8,,1-5[32:5],,2,,1/3,,,,
4,,,3/B7,,,6/B2,,1p4[32:5]/8q5[32:5],,,,1/8,,,,
3/6,,,2/7,,,1h[4:1]/8h[4:1],,,,,,C,,,,,,,,
{4}1xbV35V71V37V51[32:49]b,,,,,,,
{8}7x-4[32:4],,1bh[8:1]/7b,,
{16}2,,4,4,3,,,2/5,,,1/6,,7<4[32:5],,8,,
1h[8:1]/7qq3[32:12],,,,1-4[32:4],,1,,1,,,,
{32}2x/5x,,,,,,,,2b/5b,3x,4x,5x,6,7,8,1,
{16}5x,5,2x,2,4x,,3/5x,,2,4,3,5,4,6,3,5,2,,
{24}1/7,,,1-6[32:4]/7,2,3,,,,1b/4bh[8:1],,,,,,
{16}3/5,,2,2,1x/3,,,5/7,,,4/8,,
2-4[32:4],,6-8[32:4],,2V84-6[32:10]b,,6,,2,,,,7xh[8:1],,,,
{24}7x,6,5,4,3,2,1,8,7,3x,4,5,6,7,8,1,2,3,
6x,5,4,3,2,1,8,7,6,2x,3,4,5,6,7,8,1,2,
{4}Chf[4:1],2x>5[32:4],
{16}2b/8b,,,,5x/6x,,7,7,3,,6,,4/5,,3,3,5,,2,,
3/4,,5,5,1pp4[32:12],,7x/8x,,1/6x-1[32:4],,,,6,,,,
{32}8xb/3b,7x,6x,5x,4,3,2,1,
{16}4x,4,8x,8,3x,,2/6x,,
{24}1x,2,3,7x,6,5,2x,3,4,6x,5,4,
{16}2,,3/7,,4v1[64:9]/6v1[64:9],,,,
4b/6b,,,,2x/8x,,3,3,6,,1/7,,2,,5,5,3,,
2/4,,1,,8,8,2,,3/5,,1/7h[8:1],,,,
{24}2x,3,4,5,6,7,8,1,2,6x,5,4,3,2,1,8,7,6,
3x,4,5,6,7,8,1,2,3,7x,6,5,4,3,2,1,8,7,
{16}2x,2,6x,6,2b-6[32#128:3]b,
{8},,,,,,,,,,,
E
