&title=季節は次々死んでいく
&artist=amazarashi
&first=0
&des=The ghoul
&lv_5=14
&inote_5=(181)
{1},,
{8}5/4h[2:1],5,5,5,5,5,5,5,
5/2h[2:1],5,5,5,5,5,5,5,
5/8h[2:1],5,5,5,5,5,5,5,
5/6h[2:1],5,5,5,5,5,5,5,
5/A3/E3/E4,5,5/A3/E3/E4,5,5/A3/E3/E4,5,5/A3/E3/E4,5,
5/A1/E1/E2,5,5/A1/E1/E2,5,5/A1/E1/E2,5,5/A1/E1/E2,5,
5/A7/E7/E8,5,5/A1/E1/E2,5,5/A7/E7/E8,5,5/A1/E1/E2,5,
5/A7/E7/E8,5,5/A3/E3/E4,5,5/A7/E7/E8,5,5/A3/E3/E4,5,
6/1-4[8:1],5,6,5,6/3-8[8:1],5,6,5,
6/7-2[8:1],5,6,5,6/4-1[8:1],5,6,5,
6/8-3[8:1],5,6,5,6/2-7[8:1],5,6,5,
6/8-4[8:1],5,6,5,6/3-7[8:1],5,6,5,
6/8^3[8:1],5,6,5,6/7v4[8:1],5,6,5,
6/3^8[8:1],5,6,5,6/4v7[8:1],5,6,5,
6/8>4[8:1],5,6,5,6/7>3[8:1],5,6,5,
5/4,5/4,5/4,5/4,5/4,3/6,2/7,1/8,
{1}8h[4:12]/1h[4:14],,,{2},{8},,,,
{4}6h[4:6],,4x-8[8:1],,1x-3[8:1],,4h[4:6],,B5,B7,B1,B3,Ch[2:1],,,,
{16}2h[8:4],,6,,5,,,4,4h[8:1],,3,,7b/8b,,,,
8,,1/7,,1/7,,,2,4,,3/5,,3/5,,,,
7h[8:4],,3,,4,,,5,5h[8:1],,6,,2b/1b,,,,
1,,8/2,,8/2,,,7,5,,6/4,,6/4,,,,
{4}1pp5[8:4]*-7[8:1],,5-3[8:1]*pp1[8:4],,
1pp5[8:4]*-7[8:1],,5-3[8:1]*-7[8:1],,
{4}1-5[8:1],6-2[8:1],3-7[8:1],8-4[8:1],
{8}1,2,3,4,5,6,7,8,
{16}
1-5[8:1],,4,,6,,,7,4-8[8:1],,1,,7,,,,
1-5[8:1],,3,,7,,,6,4-8[8:1],,2,,6,,,,
{4}2-5[8:1]/6,6-1[8:1]/2,2-6[8:1]/6,2/7,
{8}5/7,6,6,6,5/3,4,4,4,
{16}
8-4[8:1],,5,,3,,,2,5-1[8:1],,8,,2,,,,
8-4[8:1],,6,,2,,,3,5-1[8:1],,7,,3,,,,
{4}7-4[8:1]/3,3-8[8:1]/7,7-3[8:1]/3,7/2,
{8}4/2,3,3,3,4/6,5,5,5,
{16}3v8[8:1],,8,,3,,,7,1w5b[8:1],,3,,1b,,,,
8,,1/7,,2/6,,,4,4,,3/5,,2/6,,,,
6v1[8:1],,1,,6,,,2,8w4b[8:1],,6,,8b,,,,
1,,8/2,,7/3,,,5,5,,6/4,,7/3,,,,
{4}8qq4[8:4]*-2[8:1],,4-6[8:1]*qq8[8:4],,
8qq4[8:4]*-2[8:1],,4-6[8:1]*-2[8:1],,
{4}8-4[8:1],3-7[8:1],6-2[8:1],1-5[8:1],
{8}7,7h[8:3],,,6h[8:2],,5h[8:2],,
{4}7-2[4:3],3-6b[4:1],,,
6-3[4:3],2-7b[4:1],,,
{4}1^4[4:1],4^7[4:1],7v1[4:1],8-4b[8:1],8<2[8:4],,4hx[8:2],,
7pp2[8:10],6,5,4,3-6b[8:1],,7-2b[8:1],,
3pp6[8:10],2,1,8,7-2b[8:1],,3-6b[8:1],,
{4}7b/8b,5b/4b,7b-5b[8:1]/8b-4b[8:1],,
{4}2b/1b,4b/5b,2b-4b[8:1]/1b-5b[8:1],,
{4}1b/8b,5b/6b,1b/8b,3b/4b,1b/8b,4b/5b,1b-4b[8:1]/8b-5b[8:1],,
{8}5b,5b,4b,4b,6b,6b,3b,3b,7b,7b,2b,2b,
8bv5b[8:1]/1bv4b[8:1],,,,
{8}4b/5b,4b/5b,3b/6b,3b/6b,2b/7b,2b/7b,1b/8b,1b/8b,1bs5b[8:1]/8bz4b[8:1],,,,
{8}4b/5b,3b/6b,2b/7b,1b/8b,
{32}8bpp5[8:2],7,6,5,4,3,2,1,,,,,,,,,
2bqq5[8:2],3,4,5x,6,7,8,1,,,,,,,,,
8bx,7,6,5x>1[8:1],,,,,8bx,7,6,5,,,,,
8bx,7,6,5>1[8:1],,,,,8bx,7,6,5,,,,,
7xh[8:2],,,,,,,,3xh[8:2],,,,,,,,
6xh[8:4],,,,,,,,1x,,,,,,,,
8bx,1,2,3<7[8:1],,,,,8bx,1,2,3,,,,,
8bx,1,2,3<7[8:1],,,,,8bx,1,2,3,,,,,
8bx,1,2,3,4,5,6,7,8,,,,,,,,
{32}1bqq4[8:2],2,3,4,5,6,7,8,,,,,,,,,
7bpp4[8:2],6,5,4x,3,2,1,8,,,,,,,,,
2xh[8:2],,,,,,,,4xh[8:2],,,,,,,,
{4}1xh[8:2],7xh[8:2],
{4}4xh[8:2],6xpp6[32:9],
{32}
{32}2bx,3,4,5pp5[32:10],,,,,,,,,
1bx,2,3,4pp4[32:10],,,,,,,,,
8bx,1,2,3,,,,,
{16}3xb,2x,1x,8x,7,6x,5x,4x,3-1[8:1]/7-5[8:1],,,,
3qq3[32:9]/7,,,,
{32}7bx,6,5,4qq4[32:10],,,,,,,,,
8bx,7,6,5qq5[32:10],,,,,,,,,
1bx,8,7,6,,,,,
{16}7xb,8x,1x,2x,3x,4x,5x,6x,7-5[8:1]/3-1[8:1],,,,
7/3,,,,
{32}1b/5b,2/6,3/7,4/8,,,,,,,,,1b/5b,8/4,7/3,6/2,,,,,,,,,1b/5b,2/6,3/7,4/8,,,,,
{32}8x-3[8:1]/3,2,1,,,,,,8x-5[8:1]/5,6,7,,,,,,
8x-4[8:1]/3,2,1,,,,,,8x/5,6,7h[32:9],,,,,,
{32}3,2,1,8h[32:13],,,,,7,6,5,4h[32:5],,,,,,1/5,2/6,3/7,,,,,1x-5[8:1]/5x,,,,,,,,
{32}1x-4[8:1]/4,3,2,,,,,,1x-6[8:1]/6,7,8,,,,,,
1x-5[8:1]/4,3,2,,,,,,1x/6,7,8,,,,,,
{16}1x/5x,,1x/5x,,4/8,,4/8,,7/3,,7/3,,6/2,,6/2,,
{24}1b/5b,2x/6x,3x/7x,4x/8x,3x/7x,2x/6x,
{4}1x-5[8:1]/5x-1[8:1],1/5,3/7,
{16}
1/7-3[8:1],,3/8,,7^4[8:1]/1,,,2,7-3[8:1]/2,,3,,7/2,,1,,
2-6[8:1]/5,,4/8,,2/6,,,8,8/1-5[8:1],,3/5,,8/1,,6,7,
8/2-6[8:1],,6/1,,2^5[8:1]/8,,,7,2-6[8:1]/7,,6,,2/7,,8,,
7-3[8:1]/4,,5/1,,7/3,,,1,1/8-4[8:1],,6/4,,1/8,,3,2,
{8}1/5,2/6,3/7,4/8,1/5,2/6,3/7,4/8,
{16}1/5,,3,4,3,,6,5,6,,3,4,2,,6,5,
{16}7b,4,5,4,5,4,7b,3,4,3,4,3,7b,2,3,2,6b,3,4,3,6b,4,5,4,6b,5,4,3,2,1,8,7,
{16}2b,5,4,5,4,5,2b,6,5,6,5,6,2b,7,6,7,3b,6,5,6,3b,5,4,5,3b,4,5,6,7,8,1,2,
7b,4,6,2,5,4,8b,2,7,4,6,2,8b,3,7,4,
6b,5,6,5,7b,4,6,5,8b,3,6,5,1b,2,6,5,8b,3,6,5,7b,4,6,5,6b,7,8,1,2,3,4,5,
3b,4,3,4,2b,5,3,4,1b,6,3,4,8b,7,3,4,1b,8,7,6,5,4,3,2,1v4[8:1]/5v8[8:1],,,,5/1,,,,
{8}
4/1-5[8:1],3,4,3,4/6-8[8:1],3,4,3,
4/1-5[8:1],3,4,3,4/6-8[8:1],3,4,3,
4/1-6[8:1],3,4,3,4/5-8[8:1],3,4,3,
4/1-6[8:1],3,4,3,4/5-8[8:1],3,4,3,
4/1-5[8:1],2,4,2,4/1-7[8:1],2,4,2,
4/5-7[8:1],2,4,2,4/5-1[8:1],2,4,2,
4/7-1[8:1],2,4,2,4/7-3[8:1],2,4,2,
4/7-5[8:1],2,4,2,4/7-3[8:1],2,4,2,
4b/6b,4b/6b,2/5,2/5,1b/6b,7/8,5/1,2/6,3b/5b,3b/5b,4/7,4/7,3b/8b,1/2,4/8,3-8[51.43#28:1]/7-4[51.43#28:1],7h[4:3]/3h[4:3],,,,,,,,,,
