&title=OveR
&artist=富田美憂
&first=0
&des=Himekawa Yoshino
&lv_5=13
&inote_5=(198){1},
{16}4pp8[1:1]/5h[2:3],,,,,,,,,,,,,,,,
{16},,,,,,,,7h[2:1],,,,,,,,
{16}6h[8:3],,,,,,5h[8:3],,,,,,4>5[1:1],,,,
{16},,,,,,,,,,,,,,,,
{16}4qq7[1:1]*pp1[1:1],,,,,,,,,,,,,,,,
{16},,,,,,,,8h[2:1],,,,,,,,
{16}1b>8[1:1]*<2[1:1],,,,,,,,,,,,,,,,
{16},,,,,,,,1,,7,8,6,,3,4,
{16}2b-5[8:1],,,,8,,,,6-1[8:1],,5,,4,,3,,
{16},,2,,1/4qq5[8:3],,,,7,,,,6,,,,
{16}8b-4[8:1],,,,4,,3-8[8:1],,,,6,,5,,,,
{16}6-1[8:1],,1,,6,,,,2-6[8:1],,4,,2,,,,
{16}7b-4[8:1],,,,1,,,,3-8[8:1],,4,,5,,6,,
{16},,7,,8/5pp4[8:3],,,,2,,,,3,,,,
{16}2h[8:3],,,,4,,6h[8:3],,,,5,,3h[8:3],,,,
{16}5,,7h[4:1],,,,5,,4,,3,,2>5[4:3],,1h[8:1],,
{16},,,,,,,,8,,,,8<5[4:3],,,,
{16},,,,,,,,4,,,,4>1[4:3],,,,
{16},,,,,,,,8,,,,8p4[4:3],,,,
{16},,,,,,,,2,,,,2<7[4:3],,,,
{16},,,,,,,,6,,,,6>3[4:3],,,,
{16},,,,,,,,2,,,,2<7[4:3],,,,
{16},,,,,,,,6,,,,6,,,,
{16}8h[2:1],,,,,,,,6h[2:1],,,,,,,,
{16}4h[4:1],,,,5,,,,3,,5,,4,,6>4[4:1],,
{16},,,,,,,,3,,5,,4,,6>1[8:5],,
{16},,,,,,,,1>6[8:5],,,,,,,,
{16}8,,,,,,,,2,,4,,3,,5,,
{16}4h[2:1],,,,,,,,6,,4,,5,,3<5[4:1],,
{16},,,,,,,,6,,4,,5,,3<8[8:5],,
{16},,,,,,,,8-4[2:1],,,,,,,,
{16}4>1[2:1],,,,,,,,1,,,,,,,,
{16}8b/7b<3[4:1],,,,,,2,,2h[4:1],,,,1,,1h[4:1],,
{16},,3<2[16:7],,,,8,,8,,,,,,,,
{16}45,,,,,,3,,4,,2qq7[4:3],,,,6,,
{16},,5,,,,4,,,,3,,,,,,
{16}5/2>6[4:1],,,,,,7,,7h[4:1],,,,8,,8h[4:1],,
{16},,6>2[4:1],,,,1,,1,,,,8,7,6,5,
{16}4,,,,2,,13,,,,6,,75,,,,
{16}45,,,,2,,14,,,,6,,58,,,,
{16}5,,4,,3,,2,,5,,4,,3,,2,,
{16}5b,,3b,,1b,,7bV53[4:1],,,,,,,,,,
{16}1-6[8:1],,1,,5-8[8:1],,5,,3,,,,1,,1/8-4[8:1],,
{16},,8/2-5[8:1],,,,2/6z2[16:5],,,,,,,,,,
{16}1-5[8:1],,1,,6-1[8:1],,6,,2-5[8:1],,2,,8,,8-4[8:1],,
{16},,8/5<8[8:1]*>2[8:1],,,,,,,,1-6[8:1],,6-4[8:1],,1,,
{16},,,,8V25[4:1],,2,,,,,,1V74[4:1],,7,,
{16},,,,8,,2,,6,,4,,2b/8b,,,,
{16}1-6[8:1],,6V41[4:1],,1,,4,,,,7,,7,,,,
{16}8-3[8:1],,3>5[8:2],,8,,5,,,,1b-5[8:1],,,,6-2[8:1],,
{16},,4>7[4:1],,4,,7,,6,,6,,5,,5/8-3[8:1],,
{16},,8/6-1[8:1],,,,6/5,,4,,3,,2,,{24}1b,8,7,
{16}6V48[4:1],,4,,4,,,,2,,2,,3,,3/7-3[8:1],,
{16},,7/5-1[8:1]*-2[8:1],,,,,,,,8-3[8:1],,3-5[8:1],,8,,
{16},,,,1V74[4:1],,7,,,,,,8V25[4:1],,2,,
{16},,,,1,,7,,3,,5,,7b/1b,,,,
{16}8p4[4:1],,,,4p8[4:1],,,,8<4[4:1],,,,4>8[4:1],,,,
{16}8<4[4:1],,,,4,,,,8,,,,{32}1,2,3,4,5,6,7,8,
{1}1b-5[2:1],
{16}4,,6,5,4,,2,,{12}34,,54,,56,,
{1}7b-3[2:1],
{16}2,,1,,8,,7,,{12}46,,35,,24,,
{16}1b,,,,7h[4:1],,,,5b,,,,3h[4:1],,,,
{16}1b,,,,7h[4:1],,,,5b>1[4:1],,,,,,,,
{16}7-4[8:1],,,,7/8-3[8:1],,,,8/6-1[8:1],,,,6/5-2[8:1],,,,
{16}5/7-3[8:1],,,,7/8>6[4:1],,,,8b,,,,,,,,
{16}8-4[8:1],,5,,8,,2-6[8:1],,5,,2,,8b,,,,
{16}1<6[8:1],,2,,3,,4,,5-1[8:1],,6,,7,,,,
{16}8b-5[8:1],,,,8/3-8[8:1],,,,3/6-3[8:1],,,,61,,,,
{12}2,4,3,7,5,6,{32}1b,,,,,,,,,,,,,,,,
{16}2,,2-6[8:1],,4,,2,,7-3[8:1],,5,,7,,1-5[8:1],,
{16}4,,1,,7,,8,,1-5[8:1],,4>6[4:1],,1,,4b,,
{16},,,,,,,,,,,,,,,,
E
&inote_6=(198){1},
{16}6h[4:3],,,,5,,,,5,,,,4,,,,
{16}3h[4:3],,,,4,,,,4,,,,5,,,,
{16}6h[4:1],,,,4,,2h[4:1],,,,5,,7<2[4:3],,,,
{16}1,,,,8,,,,7,,,,6,,,,
{16}1h[4:3],,,,4,,,,5,,,,6,,,,
{16}7h[4:3],,,,2,,,,3,,,,4,,,,
{16}8qq5[1:1]*pp3[1:1],,,,,,,,,,,,,,,,
{16},,,,,,,,4,,4,5,3,,4,3,
{16}5b-8[8:1],,,,1,,,,2-5[8:1],,1,,8,,7-3[8:1],,
{16},,4,,4>6[32:9],,,,8,,,,5,,,,
{16}16,,2,,1,,38,,7,,1,,26,,,,
{16}45,,3,4,3,,2,,8-4[8:1],,1,,8,,,,
{16}3b-8[8:1],,,,7,,,,6-3[8:1],,8,,1,,2-6[8:1],,
{16},,5,,5-3[8:1]*-7[8:1],,,,5,,,,1,8,2,8,
{16}3h[4:1],,,,4,,7h[4:1],,,,5,,2h[4:1],,,,
{16}3,,7h[4:1],,,,6,,28,,37,,46,,1b>8[4:14]/8b<1[4:14],,
{16},,,,,,,,,,,,,,,,
{16},,,,,,,,,,,,,,,,
{16},,,,,,,,,,,,,,,,
{16},,,,,,,,,,,,,,,,
{16}2,,3,,4,,3,,4h[32:1],,,,,,,,
{16}7,,6,,5,,6,,5h[32:1],,,,,,,,
{16}2,,3,,4,,2,,4h[32:1],,3,,,,,,
{16}7,,6,,5,,7,,5h[32:1],,6,,,,,,
{16}2,,3,,4,,3,,4,,,,3/5,,,,
{16}7,,6,,5,,6,,5,,,,6/4,,,,
{16}2,,3,,4,,2,,43,,,,6/4,,,,
{16}7,,6,,5,,7,,56,,,,5/3,,,,
{16}2,,3,,4,,3,,4,,5,,4/3,,,,
{16}7,,6,,5,,6,,5,,4,,5/6,,,,
{16}2,,3,,4,,2,,34,,5,,4,,3,,
{16}7,,6,,5,,7,,56,,4,,5,,6,,
{16}1^6[32:8],,,,,,5,,5,,,,46,,,,
{16}3,,5,,,,5,,2/6^4[8:1],,,,,,,,
{16}8^3[32:8],,,,,,4,,4,,,,53,,,,
{16}8,,2,,7,,3,,8,,4,,7,,3,,
{16}6/5^2[32:8],,,,,,1,,1,,,,82,,,,
{16}7,,1,,,,1-4[16:3]/8-5[16:3],,27,,,,,,,,
{16}4-6[8:1],,,,8,,1-3[8:1],,,,5,,6-8[8:1],,,,
{16}5-3[8:1],,,,1,,8-6[8:1],,,,4,,3-1[8:1],,,,
{16}4-7[8:1],,,,7,,1-4[8:1],,,,4,,6,,,,
{16}8-5[8:1],,5-2[8:1],,2-7[8:1],,7b,,,,,,,,,,
{16}2^4[8:1]/6^8[8:1],,,,2^8[8:1]/6^4[8:1],,,,2/6,,,,26,,4-1[8:1]/8-5[8:1],,
{16},,8<1[24:9]/4,,,,8b,,,,{24}8,7,6,{16}5,,,,
{16}1^4[8:1]/5^8[8:1],,,,1v6[8:1]/5v2[8:1],,,,15,,,,1/7,,1-3[8:1]/7-3[8:1],,
{16},,1-5[8:1]/7-4[8:1],,,,1b/7b,,{24},,,2,3,4,5,6,7,{16}8b,,
{16},,1,8,27,,3,4,3,,6,5,6,,3,4,
{16}2,,6,5,7,,1,8,2,,4,3,5,,8,6,
{24}2,3,4,5,6,7,8,1,2,{16}3b-7[8:1]/7b-4[8:1],,,,,,,,,,
{16}1,8,1,8,2,7,3,6,4,5,1w5[8:1],,,,1b,,
{16},,7-3[8:1],,7,,4-1[8:1],,4,,8-4[8:1],,7,,8^3[8:1]*^5[8:1]/6,,
{16},,8,,,,17,,,,4-1[8:1]/6-1[8:1],,,,46,,
{16},,3-7[8:1]/8,,3,,5-8[8:1],,5,,1-5[8:1],,2,,1/3^8[8:1]*^6[8:1],,
{16},,3,,,,15,,,,{24}7,6,5,4,3,2,1b,,,
{16},,8,1,27,,2,1,3,,7,8,6,,3,4,
{16}1,,6,5,8,,3,5,1,,18,27,36,,,,
{16}2-6[8:1]*-5[8:1],,,,2,,,,7^2[8:1]*q3[8:1],,,,7,,,,
{16}4q8[8:1]/6p2[8:1],,,,46,,,,1,,8,3,7,2,6,1,
{16}5b,,,,5,,,,5,,,,5,,,,
{16}5,,2,2,7,,6,,{12}65,,54,,43,,
{16}2b,,,,2,,,,2,,,,2,,,,
{16}2,,8,7,6,,3,,{12}35,,64,,75,,
{16}8<2[2:1],,,,,,,,1b,,,,,,,,
{16}1>7[2:1],,,,,,,,8b,,,,,,,,
{16}2-5[8:1],,,,2/7-3[8:1],,,,7/1-5[8:1],,,,1/8-4[8:1],,,,
{16}3-8[8:1]/8,,,,3/6-2[8:1],,,,6-8[8:1]/1-5[8:1],,,,6/1,,,,
{16}1b-5[8:1],,3,,1,,8b-4[8:1],,6-2[8:1],,8,,6b,,,,
{16}3,2,1,8,5,6,7,8,2,3,4,5,8,7,6,5,
{16}1/4-8[8:1],,,,2q6[8:1]/4,,,,2/7^4[8:1]*^2[8:1],,,,7b,,,,
{12}2h[12:1],3h[12:1],4h[12:1],5h[12:1],6h[12:1],7h[12:1],{16}8b,,,,2/6,,,,
{16}3-5[8:1],,5,,3,,6-2[8:1],,2,,6,,3-7[8:1],,1,,
{16}3,,8-4[8:1],,5,,8,,1,,34,,56,,1b/8b,,
{16},,,,,,,,,,,,,,,,
{16},,,,,,,,,,,,,,,,
