&title=ベノム [MARETU Remix]
&artist=MARETU
&first=0.012
&des=Tane
&freemsg= 「べノマ」 より || niconico
&wholebpm=
&des_1=Tane
&des_2=Tane
&des_3=Tane
&des_4=Tane
&des_5=Tane
&lv_5=13
&inote_5=(152){4},,,,
{4}3h[8:1],4h[8:1],5h[4:1],{8},5h[4:1],
{8},,4h[8:1],,
3,2b,2b,,
{8}2-5[8:1],,6,,
{16}6h[16:3],,,5,
,,6h[4:1],,
{8},4,6,5,
4,,{8}34,{16},,
{4}2-5[8:1],7h[4:1],{16}5,,,56,
,,4/5h[4:1],,
{8},3,4,3,{16}2,,,15,
,,37,,
{8}7-4[8:1],,3,,
{16}3h[16:3],,,4,
,,3h[4:1],,
{8},5,3,4,
5,,{8}65,{16},,
{4}7-4[8:1],2h[4:1],{16}4,,,43,
,,5/4h[4:1],,
{16},,,,
4,5,4,,
{8}4-2[8:1]/5-7[8:1],,,,
{4}5/4-1[8:3],5,5,5,
{4}5/1-4[8:3],5,5,5,
{4}4v7[8:3]/5,5,5,{8}5,,
{4}5/7V14[8:3],5,{8}5,,45,,
{8}4^1[8:1]/5,7,45,,
2-6[8:1],2,7-3[8:1],7,
{8}1w5[8:1],1,,,
7-4[8:1]/8-3[8:1],16,,,
{4}2/5h[4:1],6,4h[4:1]/7,3,
{16}36,,45,,
45,,36,,
36,,7b,,
7b,,,,
{8}2-5[8:1],,6h[4:1],,
{16}5h[16:3],,,6,
,,5/7h[4:1],,
{8},4,5,3,
2-5[8:1]/4,,{8}7,{16},,
{4}5-2[8:1]/6,7h[4:1],{16}5,,,57,
,,4/5h[4:1],,
{16},,4,,
5,4,5,,
{8}5-7[8:1]/4-2[8:1],,,,
{8}7,7,3,3,
{16}4,,,5,
,,6,,
{8}2,2,6,6,
{16}5,,,4,
,,3,,
{8}3,3,2,2,
{16}1,,,17,
,,68,,
{8}6,6,7,7,
8^5[8:1]/2^5[8:1],,,,
{8}4/5^8[8:1],2,45,,
{16}3,4,3,,
65,,56,,
{8}4w8[8:1],3,,,
{8}5-2[8:1]/6-1[8:1],47,,,
2-6[8:1],2,7-3[8:1],7,
{4}1-5[8:1],,8<3[4:1],3q7[8:1],
{4}2,{8}1,,
1,1,28,28,
{8}37,,,1,
24,35,24,35,
{8}24,,,,
8,8,17,17,
{8}26,,,8,
57,57,46,46,
{8}4,3,2,1,
8,8,37,37,
{8}26,1,,5,
47,36,25,14,
{8}8,6,4,2,
8^5[8:1],,3,2q6[8:1],
{8},6,7^4[8:1],,
2^7[8:1],,5^2[8:1],,
{4}8^5[8:1],,{4}38,17,
{16}56,,1,8,
2,,3,,
{8}45,67,45,23,
{4}4^1[8:1]/5^8[8:1],,
{8}3/4,1,43,5,
{16}6,5,6,,34,,2,,
{16}1>5[4:1],,4,,{16}5s1[4:1],,6,6h[16:5],
{4},,
{4}4h[4:1]/3^6[8:1],,5h[4:1]/6^3[8:1],,
{8}1-4[8:1],1-6[8:1],,,
5pp7[8:1],5-3[8:1],,,
{8}6h[8:1],2,3/4,1,
3/4,5,{16}6,5,6,,
{16}2-5[4:1],,4,,{16}5z1[4:1],,6,6h[16:5],
{4},,
{4}6pp4[4:1],4,3qq5[4:1],5,
{8}8,8,3^8[8:1]/7^4[8:1],3/7,
3-6[8:1]/7,,1,,
{1}8h[4:7],,
{1}8<1[4:6],,
{2}78,56,34,12,
{8}68,68,,,
24,24,,5/7-4[8:1],
{8},3,2,{16}5,4,
{8}6,7,8,1,
{4}2h[8:1],4h[8:1]/5,7h[8:1],4/5h[8:1],
{4}1/3h[8:1],5/7h[8:1],3h[8:1]/4,7h[8:1]/8,
{8}8,1v3[8:1],,4v6[8:1],
,3v1[8:1],,8,
{8}7,8,1,2,
,7,6,5,
{16},,3,4,
3,,2,,
{8}1^4[8:1],,
6,7p3[8:1],,3,
{8}2^5[8:1],,5,6p8[4:1],
,3,4,3,
{8}2,1,{12}6,5,7,
2,1,3,3,4,2,
{12}7,8,6,{24}1,2,3,4,5,6,
7,8,1,
{32}8,7,6,5,
{4}4h[1:1],,,,
{16}8h[8:3],,,,
,,,8,
,,,,
,,,,
{4}3-8[8:1]/4h[4:1],,5h[4:1]/6-1[8:1],,
{16}4,5,4,5,
4,5,4,,
36,,45,,
36,,45,,
{8}2h[8:1]/5,6,2h[8:1]/5,6,
7h[8:1]/4,3,4/7h[8:1],3,
{8}2V85[4:1],6,5s1[4:1],{16}4,4h[16:5],
{8},,,,
{4}3^8[8:1]/4h[4:1],,5h[4:1]/6^1[8:1],,
{8}3qq5[4:1],4,5,6,
6,6,56,56,
{8}5h[8:1]/6,7,8h[8:1]/1,2,
3h[8:1]/4,6,5/7,8,
{8}1/2V47[4:1],6,7z3[4:1],{16}8,8h[16:5],
{8},,,,
{8}6v1[8:1],5,5,,
3v8[8:1],4,4,,
{8}5qq3[8:1],5-7[8:1],,,
3,3,34,34,
{8}4h[8:1]/3,2,1h[8:1]/8,7,
6h[8:1]/5,3,4/2,1,
{8}8/7V52[4:1],3,2s6[4:1],{16}1,1h[16:5],
{8},,,,
{8}3qq5[4:1],,8,,
6pp4[4:1],,1,,
{8}1,1,1^4[8:1]/5^8[8:1],15,
15,,,8,
{8}17,17,2^5[8:1]/6-1[8:1],26,
26,,,8,
{16}8,1,8,1,
8-4[8:1],1<2[4:1],8,1,
8,,,,
,,,,
{4}2h[8:1]/4,4/5h[8:1],{16}2^5[8:1]/4,,,6,
,,7h[16:3],,
{8},7,{16}3,4,3,,
{8}7-4[8:1]/4,,2,,
{4}1h[8:1]/5,6h[8:1]/3,{16}1-5[8:1]/4,,,5,
,,6h[16:3],,
{8},6,{16}6,5,7,,
13,,,45,
,,18,,
{4}7h[8:1]/5,5/4h[8:1],{16}7^4[8:1]/5,,,3,
,,2h[16:3],,
{8},2,{16}6,5,6,,
{8}2-5[8:1]/5,,7,,
{4}8h[8:1]/4,3h[8:1]/6,{16}8-4[8:1]/5,,,4,
,,2-4[8:1],,
{8},2-5[8:1],6,2,
7h[4:1],,8,1-4[8:1]/6,
{8},1-5[8:1],5,1,7h[4:1],,8,7/1-6[8:1],
{8},1^4[8:1],5,1,7-2[8:1],,1b,,
