&title=ra'am
&artist=雷龍
&first=0.09
&lv_5=14
&des_5=奶龍
&inote_5=
(111){4},{2},,,{16}6,
4,6,5,
7,5,{8},{16}3,5,3,4,2,4,{8},{16}2/5,{8},{16}3/7,
{8},1/6,,{16}8b/1b,7b/2b,{8}6b/3b,4/5,{16}3/5h[16:3],{8},{16}3h[16:3],
{8},5,{16}4/6h[16:3],{8},{16}4h[16:3],{8},6,5/4,5/3,
5/2,5/1,,{16}7b/8b,6b/1b,{4}5b/2b,(222){16}1,2,3,4,
5,6,7,8,1,2,3,4,5,6,7,8,1,2,3,5,
3,5,2,6,2-6b[8:1],6,2,6,{4}2b,{8}7/5,8,
2/4,1,8/4,6/2-6[8:1],,5/2,,1,
2/4,8,7/5,1/8,2/4,5/4,8/6,5/4,
3/1,5,2/8,4,1/7,6h[8:1]/3h[8:1],{4},{8}8b/1b,
7b/2b,{4}3b/6b,{16}5,4,5,4,{8}5,3,
8/6,6,1/3,3-7[8:1],6,3/5,,6/1,
4,8/3,5/4,7/1,2/4,6/5,1-3[8:1],7,
1-5[8:1],7,1-3[8:1]*-7[8:1],7,{2}1b,
{8}5b/4b,6b/3b,{4}7b/2b,{32}7b/3b,6/2,{16}5/1,{8},{16}4,{8},{16}4,
{8},4,,4/5,,6/2,{16}3,{8},{16}3,
{8},3,5b,{16}5b,5b,{8},2,{16}2,{8},{16}2,
{8},2,,2/8,,4,{16}6/3,{8},{16}6,
{8},6/4,3b,{16}3b,4b,{4}3b,1>4[8:1],
1<6[8:1],1-4[8:1],1-6[8:1],{16}3,{8},{16}3,
{8},3,3b,{16}3b,4b,{4}3b,{8}7/5,6/8,
7/1,2/5,2,{16}3,5,{8},6,{16}6,5,{8}6,
7/4,8/3,1b/2b,{16}8b,3b,{4}8b,{16}8/3,{8},{16}1,
{8}2,7/4,{16},6/5,{8},8/1,2/5,{16}7/4,{8},{16}6/5,
{8},8/3,2/5,3/8,1/6,4/3,{16}6/2,{8},{16}3,
{8}4,2/8,{16},4/3,{8},4/6,4/2,{16}7/1,{8},{16}3,
{8}4,4,6/2,1/8,{16}7,4,8,2,1,{8},{16}4,
{8}6,7/2,1/8,3h[8:1],5,2/7,{16}6,{8},{16}5,
{8}4,3/6,{16}2,1,{8}2,{32}8,7,{16}6,{32}2,3,{16}4,6,{8},{16}6,
{8},6,6,6,6,6,{16}6,4,6,4,
6,4,6,4,{8}6,8/3,{16}8-4[8:1],2,6,4,{4}8,
{8}5/3,4,{16}5,3,6,2,{8}6h[8:1],3,{4}5<7[8:1]/2>4[8:1],
5/2,{16}8-3[8:1],3,6,4,{4}8,7<5[8:1]/4>2[8:1],
7/4,{16}4-1[8:1],7,2,6,{4}4,{16}8/2,{8},{16}7b/3b,
{8},8b/1b,{16},6b/2b,{8},5b/3b,{16}6b,4b,{8}6b,2/5,
3/6,5/4,{16}6-2[8:1],2,6,2,{4}6/3-8[8:1],3/5-1[8:1],
5/4,{16}8,2,7,3,{4}6,7<5[8:1]/3>1[8:1],
7/3,{16}6,2,6,2,{4}6,{8}5b,2b,
,6b,{4}3b,7b/1b,2,
4,{16}6,5,7,4,{8}8,1/2,3,4b/5b-8b[8:1],
,5b/4b-1b[8:1],,4b/5b-8b[8:1],,5b/4b,,1h[4:1],
{4},{16}7-4[8:1],2,7,2,{8}7,1,5/3,4b,
,4b,5b,5b,6b/3b,2,7-4[8:1],7,
2-5[8:1],2,8-4[8:1],8,1-5[8:1],1,7,6b-1b[8:1],
,3b-8b[8:1],,6b/3b,,6b/1b,{16}7,8,7,1,
7,2,6,3,5,4,6,3,{8}7,8/1,2,3/5,
,{16}7,4,6,3,5,2,{4}4b,(111){8}5q8[8:3],3,
{16}5/4,{8},{16}3,,3,{8},4-1[8:1]/5-8[8:1],4/5,{4}4/5,
6-2[8:1],{8}6,4,1-5[8:1],7/4,{4}3-7[8:1],
3,{8}5-1[8:1],5,5,3,{4}7b/2b,
5-8[8:1],{8}4-1[8:1],4,4/5,7,(222){16}8b,1,8,1,
{32}8,{16},,,{32}3,4,{16},,,{32}6,{4}5,{32}3,4,{8},{32}3,4,
{8},{32}3,4,{16},{32}2,8,{8},{32}2,8,{8},{32}2,8,{16},{4}3bh[16:1]/7bh[16:1],
{8},5bh[16:1]/2bh[16:1],{4},{2}6bh[16:1]/8bh[16:1],
{8}8b/1b,2b/7b,{16}3b/6b,5,4,3,2,1,8,7,6/3,{8},{16}3,
{8}1,{16}2,7,{8},{32}3,4,{8},{32}3,4,{8},{32}3,4,{16},{32}5,3,{8},{32}5,
3,{8},{32}6,8,{8},{32}6,8,{8},{32}6,8,{16},{32}2,4,{8},{32}2,4,
{8},{32}2,4,{16},{32}8,6,{16},{32}8,6,{8},{16}1h[16:1]/2h[16:1],{8},,,7b/2b,
3b/6b,5b/4h[16:1],{16}5,4,6,3,6,3,7,2,7,2,
8,1,8,1,8,7,6,5,4,3,2,1,{4}8,
{1},,{4},,,{8},{32}7b/3b,
6/2,{16}5/1,
{8},{32}6b/2b,7/3,{16}8/4,{8},{32}7b/3b,6/2,{16}5/1,{4},1-3[8:1]/8-3[8:1],
1-6[8:1]/8-6[8:1],1-3[8:1]/8-3[8:1],8/1,{8}6/2,8/4,
2/6,7/5,8/2,3/4,5,6,{4}7-4[8:1],
4-1[8:1],1-6[8:1],6,5/1>3[8:1],
1<6[8:1],1>4[8:1],{8}1,8,{4}8-6[8:1]/1-6[8:1],
8-3[8:1]/1-3[8:1],8-6[8:1]/1-6[8:1],1/8,{8}3/7,1/5,
7/3,2/4,1/7,6/5,4,3,{4}2/1,
{8}7/4,2/6,8/4,6/5,3/1,5/3,{16}5,4,6,3,
7,1,{32}7,6,{16}5,{4}1-4b[8:1]*-6b[8:1],1b,{16}2h[16:1],1,{8},{16}3h[16:1],
4,{8},{16}6h[16:1],5,{8},7h[16:1],1h[16:1],5h[16:1],{32}2b,3,{16}4,
{8}6h[16:1],{32}1b,2,{16}3,{8},{32}7b,6,{16}5,{32}2b,3,{16}4,{32}7b,6,{16}5,{8}2,{16}2,5,
{8}2,2,{16}2,1,{8}2,8/1,6/3,5/4,{32}2b,3,{16}4,
{8},{32}8b,7,{16}6,{8},{32}1b,2,{16}3,7b,1,5,3,6,{8},{16}4h[16:1],
{8}5,{16}1h[16:1],8h[16:1],,2,{8},7/5,1,2/8,{32}7b,6,{16}5,
{8},{32}2b,3,{16}4,{32}8b,7,{16}6,{32}1b,2,{16}3,{32}7b,6,{16}5,{32}2b,3,{16}4,{8}7,1h[8:1],
8,2/5,{4}6/1,{8}7/4,6/2,{4}4/8,
{8}1/2,7/3,{16}6/1,{8},{16}2/4,{8},{16}3,6,2,7,3,6,
2,7,1,7,8,7,7,7,7,7,7,7,7,7,{8}7,
7,7,7/8,7/1,{16}8,2,{8}7,{4}6/3,
,,,{16}6,7,8,1,
2,3,4,5,6,7,8,1,{2}2b,
E
