&title=To:Alice Liddell
&artist=モリモリあつし
&first=0.04
&des=辰韵
&lv_5=13
&inote_5=(222)
{8},,5,5,4,4,6h[8:3]/3,,,
{16}5,5,7,,,,3,,,,5,,,,4,,,,3,,,,7,,,,4,,,,5h[16:8],,,,,,,,
{8}4,5,3h[8:3]/6,,,
{16}5,5,4,,,,6,,,,3,,,,4,,,,6,,,,5,,,,6h[8:2],,,,
{24}4,5,6,7,8,1,2,3,4,5,6,7,
{8}8w4[8:1],,8,,,
{16}5,5,4,,,,6-1[8:1],,,,6/3-8[8:1],,,,3/7-4[8:1],,,,2-6[8:1]/7,,,,2/8-4[8:1],,,,8/3,,,,
{8}3/7,2,2,3/8,{16}3/8,,2,1,{8}2,8,
{16}2,1,2,1,2,,7,1,
{16}7,6,5,4,3,2,1,8,
{8}7/3b,,
6/4,,4/6,,,,5/3,,5/3,,,,6/4,,4/6,,,5/3,4,,
5/3,,5/3,,4-6[8:1]/6-4[8:1],,4/6,,5-3[8:1]/3-5[8:1],4,5/3,,4/6,,4/6,5,
{16}3,4,3,,6,5,6,,3,4,3,,2/5,,,,
{12}6,5,7,3,4,,
{8}
1b/6b,,6h[8:6],,,,
4,,4h[8:6],,,,
2,,2h[8:6],,,,
8,,8h[8:6],,,,
6,,6h[8:6],,,,
4,,4h[8:6],,,,
2,,2h[8:6],,,,
8,,8h[8:3],,,,
6<8[8:2]/1h[8:5],,6,,,,
7h[8:5]/3<5[8:2],,3,,,,
2h[8:5]/6>4[8:2],,6,,,,
7h[8:5]/3<5[8:2],,3,,,,
1h[8:5]/6>4[8:2],,6,,,,
8h[8:5]/2>4[8:2],,2,,,,
1h[8:2]/7<5[8:2],,7,,
{16}3,4,3,4,2/5,,,,,,,,
{8}
6,4h[8:1],3,,2/1,,
3,5h[8:1],6,,7/8,,
6,4h[8:1],3,,2/1<7[4:1],,
7^5[4:1],,5,,,,
3,5h[8:1],6,,7/8,,
6,4h[8:1],3,,2/1,,
3,5h[8:1],6,,7/8>2[4:1],,
2^4[4:1],,4,,,,
6,4/2,1h[8:2],,
8h[8:2],,7h[8:2],,
6h[8:2],,5h[8:2],,
4h[8:2],,3h[8:2],,
2h[8:2],,1,,
3/6,,,,3/5,4,3/5,,2/6,,
{24},,,3,5,3,5,,,,,,
{8}4/6,,5,,4/5,2,4/5,1,5/6,8,4/6-3[8:1],5,,4b,,,
2b<7[8:4],,2,,2,,
2b>5[8:4],,2,,2,,
2b-6[8:4],,2,,2,,
2,,2,,4/7,,
7b>2[8:4],,7,,7,,
7b<4[8:4],,7,,7,,
{12}6,5,7,4,6,5,7,4,6,
{16}5h[8:4],,,,,,,,
6,,6,,4/7,,,,,,
{8}4,4,5,5,,5,,3,,
{32}4>5[1:3],5,
{16},,,
{8},5,5,,6,,6,,7,,6bv8[8:1],,,,,,4bv2[8:1],,,,,,4b,,,,,
{8},6/2,2v4[8:1]/6v4[8:1],,6<1[8:1]/2,,
{24}2,3,4,5h[8:2],,,,,,,,,8/4,7/3,6/2,
{8}5-1[8:1]/1,,2-4[8:1]/5,,6-1[8:1]/2,,3-7[8:1]/6,,5-1[8:1]/3,,2-5[8:1]/5,,8-4[8:1]/2,,3/8,,,,
3>8[8:1]/7,3/7,{24}7,6,5,4h[8:2],,,,,,,,1/5,2/6,3/7,4/8,
{8},7-5[8:1]/4,,3-8[8:1]/7,,6-2[8:1]/3,,4-8[8:1]/6,,7-4[8:1]/4,,1-5[8:1]/7,,6/1,
{8},
{12}4,6,4,6<1[8:1],,,
{24}2,3,4,5h[8:2],,,,,,,,8/4,7/3,6/2,5/1,
{8},3-8[8:1]/8,,7-4[8:1]/3,,1v4[8:1]/7,,
{12}5bs1[8:2]/1,,,,3b-7[8:1],,,,,
{8}5,4/6,4/6,4/6,5<8[8:1],4/6,
{24}1,2,3,4h[8:2],,,,,,,,7/3,6/2,5/1,4/8,
{8},8-5[8:1]/3,,2-7[8:1]/8,,
2/6-1[8:1],,6/3-8[8:1],,
3/7-4[8:1],,7/1-6[8:1],,
1/5,,5/2,
{12}4,3,4<7[8:1],3,
{24},8,1,2,3h[8:2],,,,,,,,8/4,7/3,6/2,1/5,,,,
{8}5-1[8:1]/1,,2-4[8:1]/5,,6-1[8:1]/2,,3-7[8:1]/6,,5-1[8:1]/3,,2-5[8:1]/5,,8/2,,
{8},,7/3>8[8:1],3/7,
{24}3/7,6,5,4h[8:2],,,,,,,,1/5,2/6,3/7,4/8,
{8},1-6[8:1]/4,,3-1[8:1]/1,3,3/7,7,7,
{32}1,2,3,4,5,,,,8,7,6,5,4,,,,2,3,4,5,6,,,,8,7,6,5,4,,,,1,2/8,3/7,4/6,5b,,,,,,,,
{12}6,5,6,3,4,3,6,5,7,3,4,2,7,8,6,2,1,3,
{8}6-2[8:1],,6/5-1[8:1],,5/4-8[8:1],,4/3-7[8:1],,,
{16},,6,,8/1,,2,,,,8/2,,6,,7/1,,3,,
{24}1,2,3,4/5,6,7,
{16}8,,2,,5h[8:8],,1,,1,,1,,1,,1,,1,,1,,
{24}1,2,3,4,5,6,7,8,1,2,3,4,
{32}5,6,7,8,1,2,3,4,5b,,
{16},,,,,7/8,,6,,4/5,,
{24}8,7,6,5/4,3,2,
{16}1,,8,,7,,6,,5b<4[2:3],,,,
{8},,,,5
,,,,,,5,,,,
{16},,,,1/8,,1s5[8:1]/8z4[8:1],,,,1b/8b,,,,,,
{8}
6b>3[8:4],,6,,6,,
6b<1[8:4],,6,,6,,
6b-2[8:4],,6,,6,,
6,,6,,4/7,,
2b<7[8:4],,2,,2,,
2b>5[8:4],,2,,2,,
2b-6[8:4],,2,,2,,
2,,2,,8/3,,3h[4:2],,,,4h[4:1],,5h[4:2],,,,6h[4:1],,5h[4:2],,,,6h[4:1],,5h[4:1],,7h[4:1],,1h[4:1],,6,5,7,8,5,4,1,2,6,5,7,8,3,4,5,6,7-3[8:1]/2,,7/2-5[8:1],,2/6-1[8:1],,6/4,,
{12}2,4,2,4,2,4,3,5,4,6,5,7,5,7,5,7,4,6,3,5,2,4,2,4,2,4,3,5,4,6,5,7,6,8h[12:3],,,
{12}4,1,4,1,4,1,3,8,1,6,8,5,8,5,8,5,1,6,3,8,4,1,4,1,4,1,3,8,1,6,8,5,7,4h[12:3],,,
{12}1,5,1,5,1,5,2,6,4,8,5,1,5,1,5,1,4,8,2,6,1,5,1,5,1,5,2,6,4,8,5,1,6,2h[12:3],,,
{12},6,5,8,3,6,4,7,1,5,3,8,2,7,4,6,1,7,
{24}3,4,5,6,7,8,1,2,3,4,5/8,7,6,5,4,3,2,1,
{8}8b-5[8:1]*v5[8:1],,8b-3[8:1]*v3[8:1],,8b-4[8:1],,8b-5[8:1]*-3[8:1],,8bw4[8:1]*-4[8:1],,8b,
