&title=恭喜发财
&artist=刘德华
&first=0.31
&des=Nanamor1
&lv_7=13+?
&inote_7=(132)
{1},,
6b/4b>3-6>5-8<7-2<1-4b[4:3],
5b<6-3<4-1>2-7>8-5b[4:3],
{8}3bx<4-1>2-7>8[8:3],,,8bx-5<6-3<4b[8:3],,,
{4}4bx-1>2-7>8[8:3],Chf[4:3],,1x-5b[8:1],1b,
6v1[8:1]/4v1[8:1],,2v5[8:1]/8v5[8:1],,
6v1[8:1]/4v1[8:1],6<5[4:1]/4>5[4:1],,,
6v1[8:1]/4v1[8:1],,2v5[8:1]/8v5[8:1],,
6v1[8:1]/4v1[8:1],{8}6<5b[4:1]/4>5b[4:1],,,{32},A8/A2,A7/A3,A6/A4,{4}A5f,
{8}8,{16}7,5,6,,1h[2:1],,{24}E2f,E3f,E4f,E5f,E6f,E7f,{4}E8f,
{8}1,{16}2,4,3,,8,,{24}8x-4[8:1]/E8f,E7f,E6f,E5f,E4f,E3f,{4}E2f/8b,
{8}1,{16}2,4,3,,8h[2:1],,{24}E8f,E7f,E6f,E5f,E4f,E3f,{4}E2f,
{8}8,{16}7,5,6,,1,,{24}1xv4b[8:1]*v6b[8:1]/E2f,E3f,E4f,E5f,E6f,E7f,{4}E8f,
7b-2[8:1],3b-6[8:1],8bw4b[8:1],8b,
{8}2,{24}4,5,6,{8}7,8,7/5,1,2/4,8,
{4}6b-3[8:1],2b-7[8:1],E2/5b-8[8:1]*qq5[8:1],5b,
{8}7,{24}5,4,3,{8}2,1,2-5[8:1]/4-8[8:1],8,2b/4b,,
{8}5>8b[4:1],{16},8,5,,7h[2:1],,,,E7,E6,E5,,,,
{8}3>6b[4:1],{16},3x,6<3[4:1],,5,,,,6x,7x,8x-5>4[4:1],,1,,
{4}4-1<8b[4:1],8V64b[4:1],4V28b[4:1],,
{32}3b/A8f,4,5,6,7,8,1,2,3,4,5,6,7,8,1,2,3,4,5,6,7,8,1,2,3,4,5,6,7,8,1,2,
{8}8-4[8:1]/3,{16},2,8w4[8:1],,1,,8,,,,,,,,
{8}2h[4:1],,7-3[8:1],7,1v6[8:1]*p5[8:1],,,,
4p8[8:1]*q8[8:1],,4pp8[8:3]*qq8[8:3],,,,,,
1<4[4:1],,4qq4b[4:1],,,,5pp5[8:3]*qq5[8:3],,
,,,,4,3,2p6[8:1]*v5[8:1],1,
2,,4b/E6/E5/A5f/B5,4b/E6/E5/A5f/B5,4b/E6/E5/A5f/B5,4b/E6/E5/A5f/B5,4b/E6/E5/A5f/B5,4b/E6/E5/A5f/B5,
2qq5b[2:1],,6<3[4:1],,,,,,
2qq5b[2:1]/E1f/B8/B1,E1f/B8/B1,E1f/B8/B1,E1f/B8/B1,E1f/B8/B1,,7>2v4[2:1],,
,,,,8-4[8:1],,,,
{1}2qq5b[2:1]/7pp4[2:1],
{8}E4/E5/A4/B4,E2/E3/A2/B2,E8/E1/A8/B8,E6/E7/A6/B6,4/3,1,7,5,
3v5b[8:1],,5w1[8:1],,B5f,,2>7[8:3]/7p2[8:3],,
,,,,1,8,7,6,
{4}3-5[8:1],2-6[8:1],1-7[8:1],1,
6-2[8:1],8v5b[8:1]*v3b[8:1],,2/6,
7V13b[4:1],3-7<6-4>3[8:3],,2-6[8:1],
{8}2/1,{16}8,8,5,,6,,{8}3/4,2,6/5,7,
8-4[8:1]/1-3[8:1],,1-5[8:1]/8-6[8:1],,8-4[8:1]/1-3[8:1],,8<5[8:1]/1p4[8:1],,
1>4[8:1]/8q5[8:1],,8<5[8:1]/1p4[8:1],,1/8,,3,,
2<6<2[2:1]/7h[4:1],,,,5q3[4:1],,5,,
2,{16},5,4>6b[4:1],,6,,{2},
{4}5-1[8:1],5h[4:1],8-4[8:1],8h[4:1],
3<6[8:1],3h[4:1],6>3[8:1],6h[4:1],
{8}2b-6b[8:1],,2bw6b[8:1],,2b,,8b/4b,,
7b-3b[8:1],,7bw3b[8:1],,7b,,1b/5b,,
{4}E3f/8b<7-2<1-4>3-6>5-8b[4:3],E7f,E5f,E1f,
1hb[4:1],,{24}7,6,5,4,3,2,7,6,5,4,3,2,
{4}1bv3b[8:1]/Cf,8bv6b[8:1],Chf[4:1],B5/B4/E5,
{8}1-6[8:1],{16},5,1-4[8:1],,5,,7-3[8:1]/1-5[8:1],,8,,7b/1b,,,,
{4}8bv6b[8:1]/Cf,1bv3b[8:1],Chf[4:1],B4/B5/E5,
{8}8-3[8:1],{16},4,8-5[8:1],,4,,2-6[8:1]/8-4[8:1],,1,,2b/8b,,,,
{8}6x-1b[8:1],{16},5,6,,4,,3h[8:3],,{24}8,7,6,{8}5,4,
{8}3>6b[4:1],{16},3x,6<3[4:1],,5,,4,,{24}5,6,7,{4}8h[8:1],
{8}4-1<8b[4:1],4,8V64b[4:1],8,4V28b[4:1],4,8,7,
{32}7b/A8f,6,5,4,3,2,1,8,7,6,5,4,3,2,1,8,7,6,5,4,3,2,1,8,7-3[8:1],6,5,4,3,2,1,8,
{4}7b,4w8[8:1],A4/B4/Cf/B8/A8,2/7,
{4}1bv3b[8:1]/Cf,8bv6b[8:1],Chf[4:1],B5/B4/E5,
{8}1-6[8:1],{16},5,1-4[8:1],,5,,7-3[8:1]/1-5[8:1],,8,,7b/1b,,,,
{4}8bv6b[8:1]/Cf,1bv3b[8:1],Chf[4:1],B4/B5/E5,
{8}1/7,{16}1,2,3bx/5bx-1[8:1],,1,8,7bx/5bx,,,,7b/2b,,,,
{8}6x-1b[8:1],{16},5,6,,4,,3h[8:3],,{24}8,7,6,{8}5,4,
{8}3>6b[4:1],{16},3x,6<3[4:1],,5,,4,,{24}5,6,7,{4}8h[8:1],
{8}4-1<8b[4:1],4,8<4b[4:1],8,4>8b[4:1],4,8,7,
{32}7b,6,5,4,3,2,1,8,7,6,5,4,3,2,1,8,7,6,5,4,3,2,1,8,7,6,5,4,3,2,1,8,
7b,6,5,4,3,2,1,8,7,6,5,4,3,2,1,8,7b,6,5,4,3,2,1,8,7,6,5,4,3,2,1,8,
{16}7b,,6,6,5b,,8,,2b,,3,3,4b,,1,,
{4}E3f/8b<7-2<1-4>3-6>5-8b[8:5],E7f,E5f,E1f,
{8}1b,1b,{48}1b,8/2,7/3,6/4,5,
