&title=RED HOUR
&artist=ariiol
&first=0.16
&des_1=RED DUCK
&des_2=RED DUCK
&des_3=RED DUCK
&des_4=RED DUCK
&des_5=RED DUCK
&lv_5=14
&des_6=RED DUCK
&des_7=RED DUCK
&des=RED DUCK
&inote_5=(151.92){4}3h[4:3]/5h[8:5],{8},,,,,6h[8:7]/5h[8:7],
,,,,,,,,2h[8:5]/1h[4:3],
,,,,,,7h[8:7]/3h[8:7],
,,,,,,,,{4}5/2qq7[4:3],
{32}E6,D6,,,,,,,,,,,,,,,B5,A5,,,,,,,{4}6qq3[4:3],
{32}D2,E2,,,,,,,,,,,,,,,A1,B1,,,,,,,{4}8pp4[4:3],
{32}E6,D6,,,,,,,,,,,,,,,B6,A6,,,,,,,{4}7xpp5[4:3],
{32}E4,D4,,,,,,,,,,,,,,,B3,A3,,,,,,,{4}2xh[4:1],
4,5/3h[4:1],5,
6/4h[4:1],6,7/5h[4:1],{8}8,5h,
{4}5/7xh[4:1],5,4/6h[4:1],4,
3/5h[4:1],3,2/4h[4:1],{8}1,4h,
{4}2xh[8:1]/4h[8:1],4h[8:1]/3h[8:1],{8}E3,E5,E4,E6,
{4}7h[8:1]/4h[8:1],6h[8:1]/5h[8:1],{8}E7,E5,E6,{24}E2,B2,B3,
{16}6xh[32:1],4xh[32:1],8,1,8,1,8,1,5xh[32:1],3xh[32:1],7,8h[32:1],7,8,7,8,
{4}6h[2:1],{16}C,C,C,C,{4}Cfh[4:1],B6/A7/D7/B2/A3/D3/B7h[384:1]/B3h[384:1]/A2h[384:1]/A6h[384:1],
1b/8b,{8}7/4,{16}4,6,3<6[8:1],4,{8}2,8/3,8x,
5/7-3[8:1],{16}6,5,{8}7,{16}1h[32:1],4h[32:1],2pp4[8:1],5,{8}3,2/6<1[8:1],7,
{4}6b/5,{8}4/2,{16}3,5,2-6[8:1],1,{8}3,8/2,8x,
5/7,{16}4,4,{8}6h[8:1],{24}7x,8x,1x,{16}5,3,{8}4b-8[16:1],{16},4/2b-5b[16:1],,,{4}2b,
{8}4/7,{16}7,5,6V84[16:3],3,{8}4,6/1,1x,
2h[8:1],{24}4xh[48:1],5xh[48:1],6xh[48:1],{8}3h[8:1],{24}1,8,7,{16}2-6[8:1],2,4,4,{8}2,8,
{4}3b/7b,{8}2/5,{16}5,3,6<1[8:1],5,{8}7,6/2,2,
{16}2,4,3,8,5,6,{24}1,2,3,{16}7h,7h,{8}5b-2[16:1],{16},5/8b-4b[16:1],,,{4}8b,
{8}5/1,{16}3,4,2,5,2-8[8:1],5,3,4,{8}2x,
7h[8:1],{16}5,6,{8}4h[8:1],{24}1,8,7,{16}2-6[8:1],2,{8}4,2>5[8:1],8,
{4}8b/2b,{8}7/4,{16}6,5,7,3,7-1[8:1],3,6,5,{8}7x,
2h[8:1],{16}4,3,{8}5h[8:1],{24}8,1,2,{16}4,3,{8}5b-1[16:1],{16},5/2b-5b[16:1],,,{4}2b,
{8}4/7,{16}5,6,{8}4/7,5,7/4,8x,
5/2,{64}3xh[32:1],4xh[32:1],,,,,,,{8}2/5,4,{16}5/2,3,{8}4,5/2h[8:1],{24}6,5,6,
{32}1x,2,{16}3,8,8,{32}4x,3,{16}2,5,5,{32}1x,2,{16}3,6,6,4,4,{32}8x,7,{16}6,
{4}4bx/3bh[8:3],{16}C,C,C,C,{24}2x,1,8,7,6,5,{32}8bx,1,2,3,4,5,6,7,
{2}2>5[8:1],{16}7h[8:1]/6h[8:1],,,6h[8:1]/5h[8:1],,,{8}5/4,
{4}3/2>5[8:1],8V61[16:5],{16}4,,,3,,,{8}2,
{4}8<5[8:1],2V41[16:5],{16}6,,,7,,,{8}8,
{4}7<4[8:1],1-5[8:1],{16}5,,,6,{8}5x-8[8:1],7,
{2}5b<2b[16:3],{16}3h[8:1],,,5h[8:1]/4h[8:1],,,{8}6/5,
7<4[8:1],8,{4}7/1V38[16:5],{16}5,,,6,,,{8}7,
1>4[8:1],8,{4}1/7V58[16:5],{16}3,,,2,,,{8}1,
1x-4[8:1],{24},,,,,,5,6,7,{8}8,1x/2bx,{16},6bx/5x,,,{4}7b/3b-5[8:1],
E6,{8}3-5[8:1],2,E6,7,
3-5[8:1],2,E6,8,3-5[8:1],2,E6,7,
{4}5/6-4[8:1],E4,{8}6-4[8:1],7,E4,2,
{4}5x/6x-4[8:1],1x/6x<1[8:1],{16}6x/2x,3,{8}4h[8:1],{16}2x,3,4,5,
{4}2b-8[8:1],E5,{8}2-8[8:1],3,E5,6,
2-8[8:1],3,E5,7,2-8[8:1],3,E5,{24}6x,5x,4x,
{16}2,3,2,3,1,4,1,4,8,5,8,5,7,6,{24}E8,B8,B1,
{4}E2h[8:1]/E6h[8:1],E8h[8:1]/E4h[8:1],{16}B2,B6,E1,E5,{4}D6h[8:1]/D2h[8:1],
{1}E7/B6/B5/E5/E1/B1/B2/E3/Cfh[128:1],
{8},,,,,,,,6h[4:3],
,,,,,,3h[4:3]/4h[8:3],
,,,5h[4:1],{16},,,,E3,E5,B2,B5,
{8}1xh[4:1],,,4h[4:1]/3h[4:1],,,6,6/5<3[8:5],
,,,5h[8:3],{32},,,,,,,,,,,,,,,,5xh[4:1],
7xh[32:7],,,,,,,,,,,{8}3h[4:1]/4h[4:1],,,2,2/1>8[8:5],
,,,2h[8:3],,,,,{4}4b/3b,
B6,4h[4:1]/B7,E8,
4h[4:1]/E6,B6,4h[4:1]/B7,{8}E8,7x,
{4}6b/5b,B3,5h[4:1]/B2,E2,
5h[4:1]/E4,B3,{16}5h[8:1]/B2/A2/E2,,,3x/A7/B7/E7,,A4/B4/E5/8x-5b[16:1],,,{4}8bx/1b,
{8}2,2,{16}4,3,4,3,{4}5h[8:1],
{8}7,7,6/5,6,{16}4,5,4,5,{8}3h[8:1],{24}6,5,7,
{16}1h[32:1],8h[32:1],2,4,3,4,3,4,1h[32:1],8h[32:1],5,6h[32:1],4,5,4,5,
{2}3b>6<3b[8:5],Ch[8:3],
{4}8b/4b,{8}6/5h[8:1],{16}7,7,3h[8:1],4,{8}4,2h[8:1],8x,
3h[8:1],{16}6,2,4h[8:1],3,{8}3,{16}5h[8:1],4,{8}4,5/6h[8:1],4,
{4}8/7h[8:1],{8}5/6h[8:1],2,{16}4h[8:1],3,{8}3,5/1h[8:1],5x,
3/4bh[8:1],{24}1,2,3,{8}4/5bh[8:1],{24}2,3,4,{8}5/6bh[8:1],3b-8[16:1],{16},3x/7b-4b[16:1],,,{4}7b,
{8}A1/E1,{16}6,5,7,5,{8}6h[8:1],A1/E1,5,
3/4,{16}3,4,{8}A1/E1,{16}5,4,6,4,{8}5h[8:1],A1/E1,7,
6/5,{16}6,5,{8}A8/E1,{16}3,4,2,4,{8}3h[8:1],A8/E1,{24}2,3,4,
{8}5/1b,{24}4,3,2,{8}1/5b,{24}2,3,4,5/1b,2,3,4,5,6,7/1b-5b[8:1],2,3,5,6,7,
{32}8bx/1bx,Cf,,,,,,,{8}6/2,{16}3,4,2-8[8:1],4,{8}3,5/2-5[8:1],7,
1/2,{16}8,8,{8}5h[8:1],{24}7,6,5,{16}3<6[8:1],4,{8}2,3/8,8,
1/7-4[8:1],{16}6,5,7,1,{8}1h[8:1],{16}4,2,5,4,7,5,1,2,
{8}4-8[8:1],{16}3,3,{8}4,{24}1,2,3,{16}8,5,6b,3,4,2b,7,8,
{4}6bx/1bx>4[8:1],{8}1,7,{16}6-1[8:1],5,{8}7,6/2,2,
4h[8:1]/7,{24}8xh[48:1],1xh[48:1],2xh[48:1],{8}5h[8:1],{24}1,8,7,{16}4-7[8:1],5,{8}3,1/4,{24}E3,B3,B4,
{32}8,7,{16}6,1,1,{32}7,6,{16}5,2,2,{32}6,5,{16}4,3,3,5,5,{32}1x,2x,3x,4x,
{8}5xh[4:1]/8bh[8:3],{24},,,,,,B4,B3,E3,{16}6x,2x,7x,3x,{8}8xv3[8:1]/4xv7[8:1],{24}3x/7x,2x/6x,1x/5x,
{16}8bx/4bx,Cf,
E
