&title=天使のクローバー [Full | 04:24]
&artist=MORE MORE JUMP! × 鏡音リン
&first=-0.05
&wholebpm=193
&des_5=seele
&lv_5=14|14.2
&inote_5=(193){1},,,,
{2}8^1b[8:2]*^2[8:3]*^3b[8:4]*>4[8:5]*>5b[8:6],,,{16},,,,,,,{32},
{8}56,,47,,34,3,25,
{16},,3h/6,5,4,,2h/6,5,4,,1h/6,5,4,,,,,{32},
{128},
(193)
{64},{8}45,56,45,3^1[8:1]/4,,4,5,6^8[8:1],,5,4,3,,3,{16}6,5,7,,
{8}18,87,18,2^4[8:1]/1,,1,8,7^5[8:1],,8,1,2,,2,{16}7,8,6,,
{8}54,43,54,6^8[8:1]/5,,5,4,3^1[8:1],,4,5,6,,6,{16}3,4,2,,
{8}81,12,81,7^5[8:1]/8,,8,1,2^4[8:1],,1,8,7,,7,{16}2,1,3,,
{4},(193)
{8}6^8[8:1]/4,4,63,,,2,2^4[8:1],,8qq5[4:2],8,,3v2[8:1],,,,,
{8}1>4[8:1]/5<8[8:1],,15,,,8-4[8:3],8,,4^2[4:1],4,,,1>5[4:1],,5<1>5[4:2],,,,,,
{8}1>5<1[4:2],1,,,,,,
{8}3,{16}5,4,6,,
(193)
{8}45,56,45,3^1[8:1]/4,,4,5,6^8[8:1],,5,4,3,,3,{16}6,5,7,,{32}45,,,,,,,,
(193)
{16}4-1[8:1]/5-8[8:1],,,,4b/5b,,,,,,
{8}2>6[8:3],2,,6-2[4:1],6,,7,7h[8:1],,,,
{16}1-4[8:1]/8-5[8:1],,,,1b/8b,,,,,,
{8}3>7[8:3],3,,7-3[4:1],7,,6,6,,
{4}7<3[4:1],3>7[4:1],7<3>7<3>7[4:4],3h[4:4],,,,,
{8}45,56,45,3^1[8:1]/4,,4,5,6^8[8:1],,5,4,3,
{16}6,4,6,4,5,3,5,3,
{8}4b-8[8:1],,4b,2b>4[8:1],,2b,7b<5[8:1],,,,,,
{16}1,2,3,4,1,8,7,6,
{8}2b>4[8:1],,2b,7b^5[8:1],,7b,1b-5[8:1],,1b,6,6,7,
{16}4,6,4,6,3,5,3,5,4/2-7[8:1],,4,,2b/4,,,{32},,
{16}2-7[8:1]/4,,4,,2b/4,,,,
{16}2-7[8:1]/4,,4,,2/4,,,
{16},2,3,4,,7,6,5,,
{16}7-2[8:1]/5,,5,,7b/5,,,{32},,
{16}7-2[8:1]/5,,5,,7b/5,,5h[32:12],,,,{32},
{16}1,{32},2,,,,,,,,
{4}48,
{16}37,6,5,6,4x/7x,3,4,3,4,,25,,,,15,,
{8}1-6-3-8[4:3]/5,15,,,,,,,,,
{16}62,3,4,3,5x/2x,6,5,6,5,,74,,
{8}8-3-6-1[8:3]/4,84,,,,,
{16}2,3,4,7,6,5,,,
{8}2h[8:1]/4,5,2h[8:1]/4,6,2h[8:1]/4,7,2h[8:1]/4,,
{8}7h[8:1]/5,4,7h[8:1]/5,3,7h[8:1]/5,2,7h[8:1]/5,,
{16}18,,18,,27,,27,,36,,36,,45,,
{24}45,5,6,7,8,1,2,3,4,5,,,,,
{8}Ch[8:3],,B2h[8:1]/B3h[8:1]/E3h[8:1]/B6h[8:1]/B7h[8:1]/E7h[8:1],,
{32},
(193)
{24}E2h[24:5]/B2h[24:5]/E3h[24:5]/8,7,6,5,,,
{48},,,,,,,
{24}84,15,26,3-7[8:1]/7,48,,,,,3bw7b[8:1],,,,,,3b,,,
{48},{24},,,,,,,,
{16}8<4[16:3],7<4[16:2]*<4[16:2],6>4b[16:1],5,A7,A6,A5,,D4h[16:16]/8<6[8:1],,,,8>2[8:1],,,,8<6[8:1],,,,8>2[8:1],,,,8,,,,,,
{48},,,,,,,
{16}1>5[16:3],2>5[16:2]*>5[16:2],3<5b[16:1],4,A2,A3,A4,,D6h[16:16]/1>3[8:1],,,,1<7[8:1],,,,1>3[8:1],,,,1<7[8:1],,,,1,,,,,,,,1-5[8:1]/8-4[8:1],27,36,45,1b/8b,,,,
{8}8-6[8:1]/1-5[8:1],,8-4[8:1]/1-3[8:1],,8b<6[8:1]/1-5[8:1],,8-4[8:1]/1b>3[8:1],,1b/8b,,,,
{32}2,3,4,5,6,7,8,1,2/6bx,,,,,,,,
{16}6,5,6,5,6,5,7,8,7,8,7,8,
{16}1,2,3,1,8,7,6,5,4h[8:2],,,,8-4[8:1],,,,8b,,,{48},,
{16}8,4,7,4,6,4,5,4,5,4,3,5,2,5,1,5h[16:9],,,,,,,,,
{24}8,7,6,5,4,3,2,1,8/5bx,,,,
{16}8,5,8,5,8,5,7,6,7,6,7,6,
{24}7,8,1,2,3,4,57,8,1,2,3,4,5,,,,,,
{8}8<4[8:1]*>4[8:1],,8,,
{8}2h[8:1]/4,5,2h[8:1]/4,6,2h[8:1]/4,7,2h[8:1]/4,,
{8}7h[8:1]/5,4,7h[8:1]/5,3,7h[8:1]/5,2,7/5,
{24}7,8,1,2,3,4,5,6,7,8,1,2,3,4,5,6,7,8,1,2,3,4,5,6,7,8,
{6},,,,,,{48},,
(193)
{64},{8}45,56,45,3^1[16:1]/4,,4,5,6^8[16:1],,5,4,3,,3,{16}6,5,7,,
{8}18,87,18,2^4[16:1]/1,,1,8,7^5[16:1],,8,1,2,,2,{16}7,8,6,,
{8}54,43,54,6^8[16:1]/5,,5,4,3^1[16:1],,4,5,6,,6,{16}3,4,2,,
{4},(193)
{8}6^8[8:1]/4,4,63,,,2,2-4v5-7[8:3],,,,,8>5[8:1],,8,,,
{8}1>4[8:1]/5<8[8:1],,15,,,8-4[8:3],8,,4^2[4:1],4,,,1>5[4:1],,5<1>5[4:2],,,,,,
{8}1>5<1[4:2],1,,,,,,
{8}3,{16}5,4,6,,
(193)
{8}45,56,45,3^1[8:1]/4,,4,5,6^8[8:1],,5,4,3,,3,{16}6,,7,,{32}45,,,,,,,,
(193)
{16}4-1[8:1]/5-8[8:1],,,,4b/5b,,,,,,
{8}2>6[8:3],2,,6-2[4:1],6,,7,7h[8:1],,,,
{16}1-4[8:1]/8-5[8:1],,,,1b/8b,,,,,,
{8}3>7[8:3],3,,7-3[4:1],7,,6,6,,
{4}7<3[4:1],3>7[4:1],7<3>7<3>7[4:4],3h[4:4],,,,,
{8}45,56,45,3^1[8:1]/4,,4,5,6^8[8:1],,5,4,3,
{16}6,4,6,4,5,3,5,3,
{8}4b-8[8:1],,4b,2b>4[8:1],,2b,7b<5[8:1],,,,,,
{16}1,2,3,4,1,8,7,6,
{8}2b>4[8:1],,2b,7b^5[8:1],,7b,1b-5[8:1],,1b,6,6,7,
{16}4,6,4,6,3,5,3,5,4/2-7[8:1],,4,,2b/4,,,{32},,
{16}2-7[8:1]/4,,4,,2b/4,,,,
{16}2-7[8:1]/4,,4,,2/4,,,
{16},2,3,4,,7,6,5,,
{16}7-2[8:1]/5,,5,,7b/5,,,{32},,
{16}7-2[8:1]/5,,5,,7b/5,,5h[32:12],,,,
{16}1,{32},2,,,,,,,,{64},,,48,,,,,,,,,,,,,,
{16}37,6,5,6,4x/7x,3,4,3,4,,25,,,,15,,{32},
{8}1-6-3-8[4:3]/5,15,,,,,,,,,
{16}62,3,4,3,5x/2x,6,5,6,5,,74,,{32},
{8}8-3-6-1[8:3]/4,84,,,,{64},,,,,
{16}2,3,4,,7,6,5,,
(193)
{8}2h[8:1]/4,5,2h[8:1]/4,6,2h[8:1]/4,7,2h[8:1]/4,,
{8}7h[8:1]/5,4,7h[8:1]/5,3,7h[8:1]/5,2,7h[8:1]/5,,
{16}18,,18,,27,,27,,36,,36,,45,,
{24}45,5,6,7,8,1,2,3,4,5,,,,,
{8}Ch[8:3],,B2h[8:1]/B3h[8:1]/E3h[8:1]/B6h[8:1]/B7h[8:1]/E7h[8:1],,
{32},
(193)
{24}E2h[24:5]/B2h[24:5]/E3h[24:5]/8,7,6,5,,,
{48},,,,,,,
{24}84,15,26,3-7[8:1]/7,48,,,,,3bw7b[8:1],,,,,,3b,,,
{48},{24},,,,,,,,
{16}8<4[16:3],7<4[16:2]*<4[16:2],6>4b[16:1],5,A7,A6,A5,,D4h[16:16]/8<6[8:1],,,,8>2[8:1],,,,8<6[8:1],,,,8>2[8:1],,,,8,,,,,,
{48},,,,,,,,
{16}1>5[16:3],2>5[16:2]*>5[16:2],3<5b[16:1],4,A2,A3,A4,,D6h[16:18]/1>3[8:1],,,,1<7[8:1],,,,1>3[8:1],,,,1<7[8:1],,,,1,,,,,,,{32},{16}1-5[8:1]/8-4[8:1],27,36,45,1b/8b,,,,
{8}8-6[8:1]/1-5[8:1],,8-4[8:1]/1-3[8:1],,8<6b[8:1]/1-5[8:1],,8-4[8:1]/1>3b[8:1],,18,,,,
{32}2,3,4,5,6,7,8,1,2/6bx,,,,,,,,
{16}6,5,6,5,6,5,7,8,7,8,7,8,
{16}1,2,3,1,8,7,6,5,4h[8:2],,,,8-4[8:1],,,,8b,,,{48},,,
{16}8,4,7,4,6,4,5,4,5,4,3,5,2,5,1,5h[16:9],,,,,,,,,
{24}8,7,6,5,4,3,2,1,8/5bx,,,,
{16}8,5,8,5,8,5,7,6,7,6,7,6,
{24}7,8,1,2,3,4,57,8,1,2,3,4,5,,,,,,
{8}8<4[8:1]*>4[8:1],,8,,
{8}2h[8:1]/4,5,2h[8:1]/4,6,2h[8:1]/4,7,2h[8:1]/4,,
{8}7h[8:1]/5,4,7h[8:1]/5,3,7h[8:1]/5,2,7/5,{64},,,,,,,
{8}5bx/6bx,,5bx/6bx,6bx,5bx/6bx,,5bx/6bx,6bx,5bx/6bx,,5bx/6bx,6bx,5bx/6bx,6bx,5bx/6bx,5bx,5bx/6bx,,4bx/3bx,4bx,4bx/3bx,,4bx/3bx,3bx,4bx/3bx,4bx,4bx/3bx,4bx,4bx/3bx,4bx,4bx/3bx,3bx,
{8}2bx>4[8:1],1,8,7bx>1[8:1],6,5,4bx<6q7^1[8:3],3,
{8}2,,,4bx,4bx,,,,
{8}8bx>2[8:1],7,6,5bx<7[8:1],4,3,2bx>4q5^7[8:3],1,
{8}8,,,8bx,8bx,,,,
{8}4b/7b,,4b/7b,4b/6b,4b/7b,,4b/7b,5b,4b/7b,6b,4b/7b,5b/6b,4b/7b,6b,4b/7b,5b,4b/7b,,5b/2b,4b/2b,5b/2b,,5b/2b,3b,5b/2b,4b,5b/2b,4b/3b,5b/2b,4b,5b/2b,,
{8}2bx>4[8:1],6,2,7,5bx-1[8:1],8,5,7,
{8}2bx>4[8:1],6,2,7,5bx,8<4pp3[2:1],3,8,,,,,,,
{8}34,,8h[8:17],,1,1^2v5^4v7^6v1[8:12],
{4},,,,,,,{8},
{8}2-5[8:1],2,7-4[8:1],7,1-5[8:1],1,8-6[8:1],8,3-6[8:1],3,7-2[8:1],7,1-4[8:1],1,8-5[8:1],8,,
{16}1-4[8:1],2,3,4,1,
{16},,,
{8}7-4[8:1],7,2-5[8:1],2,8-4[8:1],8,1-5[8:1],1,7-3[8:1],7,2-6[8:1],2,7-4[8:1],7,2-5[8:1],2,8-4[8:1],8,1-3[8:1],1,6-3[8:1],6,2-7[8:1],2,8-5[8:1],8,{64},,,,,,,,,,,,,,,,
{16}8-5[8:1],7,6,5,8,,,,
{4}4,4h[4:1],{8}E4,5,5,5/B6,,
{8}4,4h[4:1],,{8}E4,,,,5,5,5/B6,5,5,5/B6,5,5,5/B6,,,,,,,,
{8}8-3[8:1],7,8,5-8[8:1],4,5,,,,
{8}1-6[8:1],2,1,4-1[8:1],5,4,Ch[16:22],
{8}8x,8x,1x,1x,2,2,4,4,3,3,2,,18,1s5^7q5[8:24]/8z4^2p4[8:24],{1}18,,,{8},,,,,,{32},{8}7,,8,,1^2[8:1]*^3[8:2]*^4[8:3]*>5[8:4]*>6[8:5],,,,,,,,,,,,
{8}78,,34,,
{8}6^8[16:1]/5,,5,4,3^1[16:1],,4,5,6,,6<4b[8:2],,
{36}D7,A7,D8,A8,D1,A1,D2,A2f,D3,A3,,,,,,,,
{24}E2h[24:5]/B2h[24:5]/E3h[24:5]/8,7,6,5,,,
{48},,,,,,,
{24}84,15,26,3-7[8:1]/7,48,,,,,3bw7b[8:1],,,,,,3b,,,
{48},{24},,,,,,,,
{16}8<4[16:3],7<4[16:2]*<4[16:2],6>4b[16:1],5,A7,A6,A5,,D4h[16:16]/8<6[8:1],,,,8>2[8:1],,,,8<6[8:1],,,,8>2[8:1],,,,8,,,,,,
{48},,,,,,
{16}1>5[16:3],2>5[16:2]*>5[16:2],3<5b[16:1],4,A2,A3,A4,,D6h[16:20]/1>3[8:1],,,,1<7[8:1],,,,1>3[8:1],,,,1<7[8:1],,,,1,,,,,,,,1-5[8:1]/8-4[8:1],27,36,45,1b/8b,,,,
{8}8-6[8:1]/1-5[8:1],,8-4[8:1]/1-3[8:1],,8<6b[8:1]/1-5[8:1],,8-4[8:1]/1>3b[8:1],,18,,,
{32}2,3,4,5,6,7,8,1,2/6bx,,,,,,,,,,,,
{8}5bx/6bx,,5bx/6bx,6bx,5bx/6bx,,5bx/6bx,6bx,5bx/6bx,,5bx/6bx,6bx,5bx/6bx,6bx,5bx/6bx,5bx,5bx/6bx,,4bx/3bx,4bx,4bx/3bx,,4bx/3bx,3bx,4bx/3bx,4bx,4bx/3bx,4bx,4bx/3bx,4bx,4bx/3bx,3bx,
{8}2bx>4[8:1],1,8,7bx>1[8:1],6,5,4bx<6q7^1[8:3],3,
{8}2,,,4bx,4bx,,,,
{8}8bx>2[8:1],7,6,5bx<7[8:1],4,3,2bx>4q5^7[8:3],1,
{8}8,,,8bx,8bx,,,,
{8}4b/7b,,4b/7b,4b/6b,4b/7b,,4b/7b,5b,4b/7b,6b,4b/7b,5b/6b,4b/7b,6b,4b/7b,5b,4b/7b,,5b/2b,4b/2b,5b/2b,,5b/2b,3b,5b/2b,4b,5b/2b,4b/3b,5b/2b,4b,5b/2b,,
{8}2bx>4[8:1],6,2,7,5bx-1[8:1],8,5,7,
{8}2bx>4[8:1],6,2,7,5bx,8<4pp3[2:1],3,8,,,,,,,
{8}6-8[8:1],,1,,3-1-4-7-5-8-4-1<8-5-8>1pp8v3[8:18],{1}3,,{4},,{8},
{4}8-6[8:1]*-5[8:1],2-4[8:1]*-5[8:1]/8,2,,
{8}1-3[8:1]*-4[8:1]/7-4[8:1]*-5[8:1],,,,A6/D6/A5/D5/A4f/E4/B3/B2/E2/A1,,,,
{8}45,56,45,3^1[16:1]/4,,4,5,6^8[16:1],,5,4,3,,3,{16}6,5,7,,
{8}18,87,18,2^4[16:1]/1,,1,8,7^5[16:1],,8,1,2,,2,{16}7,8,6,{32},,
{8}54,43,54,6^8[16:1]/5,,5,4,3^1[16:1],,4,5,6,,6,{16}3,4,2,{32},,
{8}81,12,81,7h[8:2]/5h[4:1],,,
{16}6,4,6,4,5,3,5,3,4,2,4,2,3,1,3,1,
{32}13,24,35,46,57,68,1h[16:6]/7h[16:57],
{8},,,,2h[8:1],,,,{32},
{3}2h[6:1],3h[6:1],4h[6:1],5h[6:1],6h[24:37],,,{12},,
{16},,,8,1,2,3,
E
