&title=Renegade
&artist=R・O・N
&first=0.01
&des=怎么全是海底谭
&lv_5=13+
&inote_5=(135)
{1},,
{8}5-7-4-8-3-1[8:8]/2,2h[8:12],,,,,,,
{16},,,,,,,,,,1,,,48,,,
5-2V84[8:5]/7,,7h[8:6],,,,,,,,,,,,,,
,,,,37,,1,,1w5[8:1],,,,,,,,
6-8[8:1]/4,,,,56,,,,3-1[8:1]/5,,,,34,,,,
6-8[8:1]/4,,,,5-1[8:1]/6,,,,4-8[8:1]/5,,,,7/4<7[8:1],,,,
1>4[8:1]/4,,,,1/6<1[8:1],,,,6/2w6b[8:1],,,,2,,,,
3-5s1<8z4b[16:8],,,,A3f,,,,,,,,,,,,
5b-2[8:1]/2b,,3,,58,,7,,6-1[8:1]/1,,5,,26,,4,,
5h[8:2],,8,7,6,,2,3,4-2[12:1]/7-1[12:1],,,,47,,,,
8h[8:1]/4,,3,,2/6h[8:1],,1,,4<7[8:1]/8,,51,,2,,3,,
4h[8:1]/7h[8:1],,,5h[8:1]/2h[8:1],,,7v6-4b[6:1]/3,,1b,,,,,,,,
4b>1[8:1]/1b,,2,,47,,6,,4-8[8:1]/2,,3,,47,,6,,
5h[16:4],,2,3,4,,1,2,3v8[8:1]/7v4[8:1],,,,37,,,,
1h[8:1]/5,,6,,7/3h[8:1],,8,8,5h[8:1],,7,,46,,53,,
2-5[12:1]/4,,,7-1[16:1],,,4V62[16:3],,,8,,,,,,,
{16}1-5[8:1]/5-7[8:1],,,,15,,,,8,,5,6,,3<6[8:1],4,,
7,,,,8h[8:2],,,,6,,5,7,,2>6[6:1],4,,
7,,,,8h[8:2],,,,6,,5,7,,3,4,,
2h[8:1],,,5h[8:1]/3,,,4h[8:1]/6,,,7h[8:1]/5,,,4,,26,,
7b-3[8:1]/1b-5[8:1],,,,1b/7b,,,,2,,4,3,,6-2[8:1],5,,
7-4[8:1],,,,1h[8:2],,,,3,,4,2,,6-2[8:1],5,,
7-4[8:1],,,,1h[8:2],,,,3,,4,2,,7,4,,
8h[8:1],,,1h[8:1]/6h[8:1],,,3h[8:1]/7h[8:1],,,1h[8:1]/5h[8:1],,,7-4b[8:1]/4,,,,
3bqq6[8:12],,,,,,,,4,,,,,,,,
,,5,,,7,,,8h[8:4],,,,,,,,
5pp2[8:10],,,,,,,,1,,,,,,,,
,,8,,,7,,,6pp5[8:3],,,,,,,,
3qq6[8:12],,,,,,,,4,,,,,,,,
,,5,,,7,,,8h[8:4],,,,,,,,
6,,5,,47,,3,,3,4,2,5,1,6,8,7,
{32}1bx,2,3,4,5,6,7,8,1bx,2,3,4,5,6,7,8,1bx,2,3,4,5,6,7,8,1bx/Cf,,,,,,,,
{8}2/5-3[8:1],6,2-6[8:1],1,26,8,{24}5-7[8:1],4,3,{8}2,
5-8[8:1],4,2-6[8:1],3,62,8,{24}5<8[8:1],4,3,{8}2,
5qq6[8:2],2,1,1,8-3[8:1],8,7-4[8:1],7,
4,3,2-6[8:1],6V84[8:2]*V83[8:2],5,,,,
2bx>5b[8:1]/8bx<5b[8:1],,28,,37,6,{24}4-8[8:1],3,2,{8}1,
4-1[8:1],2,7-3[8:1],6,37,1,{24}4>1[8:1],5,6,{8}7,
4pp3[8:2],7,8,8,1-6[8:1],1,2-5[8:1],2,
8,7,26,51,{24}4bx-8b[8:1],3,2,1,8,7,6bx,,,,,,
{8}5-7[8:1]/1,6,5x/8x-5[8:1],2,8/4-8[8:1],3,4x/1x-4[8:1],2,
6-1[8:1],7,3x-6[8:1],4,8<5[8:1]*-4[8:1],1,8b>3b[8:1],,
4/8b,,4x/1x-4[8:1],7,1/5-1[8:1],6,5x/8x-5[8:1],7,
3-8[8:1],2,6x-3[8:1],5,1>4[8:1]*-5[8:1],8,1b<6b[8:1],,
1b/5,,5x/8x-5[8:1],2,8/4-8[8:1],3,4x/1x-4[8:1],2,
6-1-5-3b[8:3],,2h[8:4],,,,,,
{16}53,,4,6,,5,7-3[8:1],,,,5,,2bx,,,,
46,,5,3,,4,2-6[8:1],,,,4,,7bx,,,,
62,,4,7,,5,8-4[8:1],,,,5,,1bx,,,,
26,,,48,,,1-6[8:1]/5-2b[8:1],,,,
