&title=鸟加鸟加
&artist=WD王浩轩
&first=0
&des_1=SSS+SSS+
&des_2=SSS+SSS+
&des_3=SSS+SSS+
&des_4=SSS+SSS+
&des_5=SSS+SSS+
&lv_5=13+
&des_6=SSS+SSS+
&lv_6=13+
&des_7=SSS+SSS+
&des=SSS+SSS+
&inote_4=(145){1},
{8}8bx/1xs5[16:3]*s5[16:3],,,,,,6bx/4bx,,,,,,1s5[8:1],,,,
{8}8bx/1bxs5b[16:3],,,,,,3bx/5bx,,6-2[8:1]/8-4[8:1],,,,7bx/5bx,8,1V35[8:2]/7,6,
{16}5>8[8:2]/1b,,,,8,,,,,,6,5,6,,7/4,,1/8,,3,4,3,,2V48[8:2]/5,,1/8,,,,7V53[8:2],,,,
{16}3<8[8:2]/7b,,,,8,,,,,,3,4,3,,2/5,,8/1,,6,5,6,,7V58[8:2]/4,,8/1,,,,1<4[8:2],,,,
{16}4>7[8:2],,,,7V13[8:2],,,,,,5,,6,,4,5,4,,8/6,,4/5,,1/3,,4b-8[8:1]/5b-1[8:1],,,,,,,,
{12}7,7,2,6-2[8:1],6,1,6-1[8:1]*-3[8:1],,,,,,
{12}3,3,6,4-8[8:1],4,7,4^1[8:1]*^7[8:1],,,,,,
{16}3x,4,3,4,2,,6,5,6,,7,,5x/4,,3,4,1,,6,5,8,,3,8qq3[16:4],3x,,2,,,,,,
{16}2x,4,2,4,1,,7,5,7,,8x,,{12}2x,2,2,3x,3,3,4x,4,4,{8}5x^2[8:1]*p1[8:1],6/4,5b,,
{16},,6,4,8,,3q7[8:1],5,1,,,,{12}8,8,6,1,1,7,2x-5[8:1]/6x-3[8:1],2x/6x,2x/6x,{16}2bx/6bx,,,,6,4,5,3,
{16}8,,3,5,1,,6,4,8,,1/5,,3-8[8:1]/7-4[8:1],,,,
{8}3/7,,5^8[8:1]/1^4[8:1],,1-6[8:1]/5v2[8:1],,5b/1b,,
{8},2,4,3,5,4,6,5,7,6,8V64[8:1]*p4[8:1],4,B6,,,,
{8}7,5,6,4,5,3,4,2,3,1,2,8,1-5[8:1]/7-3[8:1],,1/7,,
{16},,6,6,1-5[8:1],,7-4[8:1],,1>5[8:1],,7,,1,,,,
{16}7,7,3,3,8-4[8:1],,2-5[8:1],,8<4[8:1],,2,,8,,,,
{16}1/2,,3,,5/4,,1,8,5/6x,,7,,1/8,,4,5,
1,8,2,7,3,6,4,5,3x-8[8:1]/6x-1[8:1],,4/5,,3b/6b,,,,
{16},,2,2,5,3,6,4,8x,,7,7,4-1[8:1],6,4-8[8:1],5,4x-2[8:1],,4x-7-4[8:3],,4x,,4x,,,,,,,,,,
{16}5/4,,6,,7/8x,,1,1,5,3,6,4,8x-6[8:1],,8-4[8:1],1,8x-5[8:1],,8x-3[8:1],,8x,,8x,,8xv5[8:1]*p3[8:1],,,,8b,,,,
{16},,6,5,7/4,,1/8,,2^5[8:1]/4-8[8:1],,,,2b/4b,,,,
{12}6/4,5,4,5/3,4,3,{16}4-8[8:1]/2^5[8:1],,,,2b/4b,,,,
{12}6/5x,7,7,1/8,2,2,3/4,,5,4/3,2,2,
{12}8/1,7,7,5/6,4,4,{8}5w1[8:1],4/6,,,,,,,,,,,
{1}1b-5pp7b[8:28]/8b-4qq2b[8:28],,,
{8},,,,,,,B6/B3/E7/E3/Cf/B7/B2/A7/A6/A2/A3/D7/D3,,,
{16},,,,E7f/4bx,,,B2f/5bx,,,B7f/3bx,,E2f/6bx,,,,,,,,
{16}3x,1,,1,3,,3,,6x,8,,8,6,,6,,4x,1,,1,4,,4,,5x,8,,8,5,,5,,
4x,2,,2,4,,4,,5x,7,,7,5,,5,,
2V47[8:2],,,,7b-5v4-2b[8:3]`E4f,,,,2b`E7f,,,,8b`A4f,,,,
7x,5,,5,7,,7,,2x,4,,4,2,,2,,8x,5,,5,8,,8,,1x,4,,4,1,,1,,
8x,6,,6,8,,8,,1x,3,,3,1,,1,,
5bs1[8:2],,,,1bs5b[8:2],,,,5b`E1f,,,,,,,,
6x^3[8:1],1,,1,6,,2,,3x^6[8:1],8,,8,3,,7,,
6x^3[8:1],8,,8,6,,1,,3x^6[8:1],1,,1,3,,8,,
6x^3[8:1],7,,7,6,,1,,3x^6[8:1],2,,2,3,,8,,
8V63[8:2],,,,3b-5v6-8b[8:3]`E7f,,,,8b`E4f,,,,2b`A6f,,,,
2x^7[8:1],5,,5,2,,6,,7x^2[8:1],4,,4,7,,3,,
2x^7[8:1],4,,4,2,,5,,7x^2[8:1],5,,5,7,,4,,
2x^7[8:1],3,,3,2,,5,,7x^2[8:1],6,,6,7,,4,,
1bs5b[8:2],,,,5b,,,,
{32}7b,6x,5x,4x,3x,2x,1x,8x,7x,6x,5x,4x,3x,2x,1x,8x,
{16}A7/B7/Cf/B3/A3/A1/B1/B5/A5,,,,,,,,,,,,1-5pp7[8:4]/8-4qq2[8:4],,
E
&inote_5=(145){1},
{8}8bx/1xs5[16:3]*s5[16:3],,,,,,6bx/4bx,,,,,,1s5[8:1],,,,
{8}8bx/1bxs5b[16:3],,,,,,3bx/5bx,,6-2[8:1]/8-4[8:1],,,,7bx/5bx,8,1V35[8:2]/7,6,
{16}5>8[8:2]/1b,,,,8,,,,,,6,5,6,,7/4,,1/8,,3,4,3,,2V48[8:2]/5,,1/8,,,,7V53[8:2],,,,
{16}3<8[8:2]/7b,,,,8,,,,,,3,4,3,,2/5,,8/1,,6,5,6,,7V58[8:2]/4,,8/1,,,,1<4[8:2],,,,
{16}4>7[8:2],,,,7V13[8:2],,,,,,5,,6,,4,5,4,,8/6,,4/5,,1/3,,4b-8[8:1]/5b-1[8:1],,,,,,,,
{12}7,7,2,6-2[8:1],6,1,6-1[8:1]*-3[8:1],,,,,,
{12}3,3,6,4-8[8:1],4,7,4^1[8:1]*^7[8:1],,,,,,
{16}3x,4,3,4,2,,6,5,6,,7,,5x/4,,3,4,1,,6,5,8,,3,8qq3[16:4],3x,,2,,,,,,
{16}2x,4,2,4,1,,7,5,7,,8x,,{12}2x,2,2,3x,3,3,4x,4,4,{8}5x^2[8:1]*p1[8:1],6/4,5b,,
{16},,6,4,8,,3q7[8:1],5,1,,,,{12}8,8,6,1,1,7,2x-5[8:1]/6x-3[8:1],2x/6x,2x/6x,{16}2bx/6bx,,,,6,4,5,3,
{16}8,,3,5,1,,6,4,8,,1/5,,3-8[8:1]/7-4[8:1],,,,
{8}3/7,,5^8[8:1]/1^4[8:1],,1-6[8:1]/5v2[8:1],,5b/1b,,
{8},2,4,3,5,4,6,5,7,6,8V64[8:1]*p4[8:1],4,B6,,,,
{8}7,5,6,4,5,3,4,2,3,1,2,8,1-5[8:1]/7-3[8:1],,1/7,,
{16},,6,6,1-5[8:1],,7-4[8:1],,1>5[8:1],,7,,1,,,,
{16}7,7,3,3,8-4[8:1],,2-5[8:1],,8<4[8:1],,2,,8,,,,
{16}1/2,,3,,5/4,,1,8,5/6x,,7,,1/8,,4,5,
1,8,2,7,3,6,4,5,3x-8[8:1]/6x-1[8:1],,4/5,,3b/6b,,,,
{16},,2,2,5,3,6,4,8x,,7,7,4-1[8:1],6,4-8[8:1],5,4x-2[8:1],,4x-7-4[8:3],,4x,,4x,,,,,,,,,,
{16}5/4,,6,,7/8x,,1,1,5,3,6,4,8x-6[8:1],,8-4[8:1],1,8x-5[8:1],,8x-3[8:1],,8x,,8x,,8xv5[8:1]*p3[8:1],,,,8b,,,,
{16},,6,5,7/4,,1/8,,2^5[8:1]/4-8[8:1],,,,2b/4b,,,,
{12}6/4,5,4,5/3,4,3,{16}4-8[8:1]/2^5[8:1],,,,2b/4b,,,,
{12}6/5x,7,7,1/8,2,2,3/4,,5,4/3,2,2,
{12}8/1,7,7,5/6,4,4,{8}5w1[8:1],4/6,,,,,,,,,,,
{1}1b-5pp7b[8:28]/8b-4qq2b[8:28],,,
{8},,,,,,,B6/B3/E7/E3/Cf/B7/B2/A7/A6/A2/A3/D7/D3,,,
{16},,,,E7f/4bx,,,B2f/5bx,,,B7f/3bx,,E2f/6bx,,,,,,,,
{16}3x,1,,1,3,,3,,6x,8,,8,6,,6,,4x,1,,1,4,,4,,5x,8,,8,5,,5,,
4x,2,,2,4,,4,,5x,7,,7,5,,5,,
2V47[8:2],,,,7b-5v4-2b[8:3]`E4f,,,,2b`E7f,,,,8b`A4f,,,,
7x,5,,5,7,,7,,2x,4,,4,2,,2,,8x,5,,5,8,,8,,1x,4,,4,1,,1,,
8x,6,,6,8,,8,,1x,3,,3,1,,1,,
5bs1[8:2],,,,1bs5b[8:2],,,,5b`E1f,,,,,,,,
6x^3[8:1],1,,1,6,,2,,3x^6[8:1],8,,8,3,,7,,
6x^3[8:1],8,,8,6,,1,,3x^6[8:1],1,,1,3,,8,,
6x^3[8:1],7,,7,6,,1,,3x^6[8:1],2,,2,3,,8,,
8V63[8:2],,,,3b-5v6-8b[8:3]`E7f,,,,8b`E4f,,,,2b`A6f,,,,
2x^7[8:1],5,,5,2,,6,,7x^2[8:1],4,,4,7,,3,,
2x^7[8:1],4,,4,2,,5,,7x^2[8:1],5,,5,7,,4,,
2x^7[8:1],3,,3,2,,5,,7x^2[8:1],6,,6,7,,4,,
1bs5b[8:2],,,,5b,,,,
{32}7b,6x,5x,4x,3x,2x,1x,8x,7x,6x,5x,4x,3x,2x,1x,8x,
{16}A7/B7/Cf/B3/A3/A1/B1/B5/A5,,,,,,,,,,,,1-5pp7[8:4]/8-4qq2[8:4],,
E
&inote_6=(145){1},
{8}8bx/1xs5[16:3]*s5[16:3],,,,,,6bx/4bx,,,,,,1s5[8:1],,,,
{8}8bx/1bxs5b[16:3],,,,,,3bx/5bx,,2-6[8:1]/8-4[8:1],,,,7bx/5bx,8,1>5[16:3]/7,6,
{16}5V38b[16:3]/1b,,,,8,,,,,,6,5,6,,7/4,,1/8,,3,4,3,,2V48[8:2]/5,,1/8,,,,7<3[16:3],,,,
{16}3V58b[16:3]/7b,,,,8,,,,,,3,4,3,,2/5,,8/1,,6,5,6,,7V58[8:2]/4,,8/1,,,,1<4[8:2],,,,
{16}4b>7[8:2],,,,7bV13b[16:3],,,,,,5,,6,,4,5,4,,8/7,,4/5,,1/2,,4b-8b[8:1]/5b-1b[8:1],,,,,,,,
{12}7x,7,2,6x-2[8:1],6,1,6x-1[8:1]*-3[8:1],,,,,,
{12}3x,3,6,4x-8[8:1],4,7,4x^1[8:1]*^7[8:1],,,,,,
{16}3x,4,3,4,2,,6,5,6,,7,,5x/4x,,3,4,1,,6,5,8,,3,8p4[8:1]*^5[8:1],4x,,2,,E8f/D8,,,,
{16}2x,4,2,4,1,,7,5,7,,8x,,{12}2x,2,2,3x,3,3,4x,4,4,{8}5x^2[8:1]*p1[8:1],6/4,5b,,
{16},,6,5,8,,3-6b[8:1],4,1h[8:1],,,,{12}8,8,6,1,1,7,2-5[8:1]/6-3[8:1],2/6,2/6,{16}2bx/6bx,,,,6,4,5,3,
{16}8,,3,5,1,,6,4,8,,1/5,,3-8[12:1]/7-4[12:1],,,,
{8}3/7,,5-8[8:1]/1^4[8:1],,1v6b[8:1]/5-2b[8:1],,5b/1b,,
{8},2,4,3,5,4,6,5,7,6,8V64[8:1]*p4[8:1],4,B6/E7/E6,,,,
{8}7,5,6,4,5,3,4,2,3,1,2,8,1-5[8:1]/7-3[8:1],,1/7,,
{16},,6,6,1-5[12:1],,8-6[12:1],,1-3[12:1],,8,,1,,,,
{16}7,7,3,3,8-6[12:1],,2-4[12:1],2,8v5[12:1],,2,,8,,,,
{16}1/2,,3,,5/4,,8,7,5x/6x,,7,,1/8,,4,5,
1,8,2,7,3,6,4,5,3x-8[12:1]/6x-1[12:1],,4/5,,3b/6b,,,,
{16},,2,2,5,3,6,4,8x,,7,7,4-1[8:1],6,4-8[8:1],5,4x-2[8:1],,4x-7-4b[8:3],,4x,,4x,,,,,,,,,,
{16}5/4,,6,,7/8x,,1,1,5,3,6,4,8x-6[8:1],,8-4[8:1],1,8x-5[8:1],,8x-3[8:1],,8x,,8x,,8xv5[8:1]*p4[8:1],,,,8b,,,,
{16},,6,5,7/4,,1/8,,2^5[8:1]/4-8[8:1],,,,2b/4b,,,,
{12}6/4,5,4,5/3,4,3,{12}4-8[8:1]/2^5[8:1],,2/4,2b/4b,,,
{12}6/5x,7,7,1/8,2,2,3/4,,5,4/3,2,2,
{12}8/1,7,7,5/6,4,4,{8}5w1[8:1],4/6,,,,,,,,,,,
{1}1b-5pp7b[8:28]/8b-4qq2b[8:28],,,
{8},,,,,,,A8/B8/Cf/B4/A4/A2/B2/B6/A6,,,
{16},,,,E7f,,,B2f,,,B7f,,E2f,,,,,,,,
{16}3x,1,,1,3,,3,,6x,8,,8,6,,6,,4x,1,,1,4,,4,,5x,8,,8,5,,5,,
4x,2,,2,4,,4,,5x,7,,7,5,,5,,
7xV52V47V52b[16:9]/A8hf[8:2]/E1hf[8:6]/D1hf[8:6]/A1hf[8:4],,,,,,,,,,,,,,,,
1x,3,,3,1,,1,,8x,6,,6,8,,8,,
2x,4,,4,2,,2,,7x,5,,5,7,,7,,1x,3,,3,1,,1,,8x,6,,6,8,,8,,
2bv3-5[16:3]/5xb,,,,6bv7-1[16:3]*v7-1[16:3],,,,{48}D5f,A4f,D4,A3,D3,A2,,,,,,,,,,,,,,,,,,,
{16}
1x-4[8:1],5,,5,1,,7,,8x-5[8:1],4,,4,8,,2,,
1x-4[8:1],4,,4,1,,6,,8x-5[8:1],5,,5,8,,3,,
1x-4[8:1],3,,3,1,,5,,8x-5[8:1],6,,6,8,,4,,
2xV47V52V47b[16:9]/A1hf[8:2]/E1hf[8:6]/D1hf[8:6]/A8hf[8:4],,,,,,,,,,,,,,,,
8x^3[8:1],6,,6,8,,4,,1x^6[8:1],3,,3,1,,5,,
8x>4[32:5],6,,6,8,,5,,1x<5[32:5],3,,3,1,,4,,
7xV13[32:5],5,,5,7,,6,,2xV86[32:5],4,,4,2,,3,,
1bs5b[8:1],,,,5b,,,,
{32}7b,6x,5x,4x,3x,2x,1x,8x,7x,6x,5x,4x,3x,2x,1x,8x,
{16}A7/B7/Cf/B3/A3/A1/B1/B5/A5,,,,,,,,,,,,1-5pp7[8:4]/8-4qq2[8:4],,
E
