&title=Believe the Rainbow[DX+]
&artist=Shoichiro Hirata feat.Sana
&first=0
&lv_5=缝
&des_5=DP_16
&inote_5=
(133){4},,,,{8}1/5,
2,3,4,5/1,8,7,6,
5/1,2,3,4,5/1,8,7,6,
{1}5z1[0.2256##0.5639]/1z5[0.2256##0.5639],
{8}1/5-8[0.2256##0.4511],2,3,4,{4},C/B7h[8:1]/B6h[8:1]/E7h[8:1]/B3h[8:1]/B2h[8:1]/E3h[8:1],
{8}4/5,3,3,6,6,4,5,4,
5/2,{4},{8}4/7,{2},{8}1v2[0.2256##0.2256],
8,{4}8v7[0.2256##0.2256],{8},2/5,,3/6,
5,4,5/4,5s1[0.2256##0.9023]/1s5[0.2256##0.9023],,,,,,1/7,
8,6,5,8/2,8/7,1/6,
2/5,8/3,1,3,4,5/6,4/7,8/3,
2/1,2/8,{4}8-5-3v2-8[0.2256##0.9023],{2},{8}7>2[0.2256##0.2256]/8-4[0.2256##0.2256],
{4},{8}5-8z4[0.2256##0.6767],,,,,,,,8x,
7x,6x,5x,4x,
,3x,2x,1x,8x,7x,6x,5x,
,,,,,4x,3x,{32}8<8[0.2256##1.3534],1,{16}2,
{8},,,,,,,,,,,1-4[0.2256##0.6767],
,,,6,
,8<5[32:3],,{32}1,2,3,4,{8},4h[4:3],{4},{8}5,
{4},{8}5,{2},{1}3h[4:1]/6h[4:1],
{16}6>3[0.2256##0.4511],{8},{16}2<7[0.3383##0.9023],{4},,,{8},
{16}5,4,{4}3bqq4[0.2256##0.9023]/7bqq8[0.2256##0.9023],{2},{16}6V47[0.2256##0.7895],
{8},{16}3-8[0.2256##0.4511],{4},,,{2}3-6[8:1]/7-2[8:1],
6-3[8:1]/2-7[8:1],
{8}3,5,3,5,2,4,2,4,
1,5,2,6,3,7,4,8,
5,1,4,8,3,7,2,6,
1,5,1,5,1,5,1,5,
{4}1b,6/2-8[8:1],5/2,4-8[8:1],
2-7[8:1],6-3[8:1],,2h[8:3],
,7b/2b,3,4,
4h[4:1],{8}5,4,6h[2:1],5h[8:3],{2},{4}1,
2,{8}2,2,
{4}4,{8}5,5,{4},{8}1,1,
B2/B3/A2/A3/E3f,{4},{8}A7/A6/B7/B6/E7f,{4},5-7[8:1]/4-2[8:1],
4-8[8:1]/5-1[8:1],4>5[8:3]/5<4[8:3],{2},{8}1-6[8:1],
1,{4}1-5[8:1],{2}1-4[8:1],
{8}1/5-1[8:1],2,3,4,5/1>4[8:1],6,7,8,
8<5[16:3],2,4<7[16:3],2,8<5[16:3],2,{4}4,
4q8[8:1]/8q4[8:1],4>1[8:1]/8<5[8:1],{2}8q4[8:1]/4q8[8:1],
{8}3<6[8:1],6-3[8:1],3-8[8:1],8>3[8:1],7-4[8:1],7,{4}7q1[8:3],
{2},{4}3,{8}8/1>4[8:1],2,
1/8<5[8:1],7,8/1>4[8:1],2,1/8<5[8:1],7,{4}1/8,
1b>4[8:1]*<6[8:1],1b,1bw5[8:1],1b,
{1}5h[1:4]/1-7-2-6-3-5>4-6-3-7-2-8[4:15],
{4},,,,,,,,,,,,,8-4[8:1]*-6[8:1],
8-3[8:1]*-5[8:1],8-4[8:1]*-2[8:1],
,1-3[8:1]*-5[8:1],1-4[8:1]*-6[8:1],1-7[8:1]*-5[8:1],
1-4[8:1]*-6[8:1],1-3[8:1]*-5[8:1],1-4[8:1]*-6[8:1],1-7[8:1]*-5[8:1],
1-4[8:1]*-6[8:1],1,{8},,,C/B7h[8:11]/B6h[8:11]/E7h[8:11]/B3h[8:11]/B2h[8:11]/E3h[8:11],
{2},,,{4}1>5[4:1],
5<1[4:1],
1>5[4:1],5<1[4:1],1>5[4:1],5<1[4:1],
1>5[4:1],5<1[4:1],1>5[4:1],5,
{8}6x,5x,4x,3x,2x,1x,8x,7x,
{12}6x,5x,4x,3x,2x,1x,{16}8x,7x,6x,5x,4x,3x,2x,1x,
{24}8x,7x,6x,5x,4x,3x,2x,1x,{96},{32}8x,7x,6x,5x,4x,3x,2x,1x,8x,7x,6x,5x,4x,3x,2x,1x,8x,7x,6x,5x,4x,
3x,2x,1x,8bx-4[16.0714##0.2256],{8},,,,,,,,,,,,,,,{1}5b,
{2},,,,,,,,,,,{4}8b/7b,
1b/2b,
8b/1b,3v5[0.2256##0.9023]/7v1[0.2256##0.9023],{2},{4}6-4-8[0.2256##0.9023],
2,8-6-4[0.2256##1.1278],2,
4-6-2[8:5],3,{8},,,,,1/8,
8,1,1,2,{24}3,4,3,4,{12},{8}5,
7,{24}6,5,6,5,{12},{8}4,3,2,1,
2,3,4,7,6,{24}5,4,5,{8}4,3,
4h[16:1],5h[16:1],4h[16:1]/6h[16:1],3h[16:1]/7h[16:1],2h[16:1]/8h[16:1],{16}1,8/2,3/7,4/6,{8}5bs1[0.2256##0.4511]*s1[0.2256##0.4511],
,,,6p3[0.2256##0.6767]*p5[0.2256##0.6767],{2},{1}1bh[4:9]/8b<8<8<7-5>4-2<1-7<6-4>3-1<8-5[0.2256##3.8346],
E
