&title=Magical Panic Adventure
&artist=削除
&first=0
&des=O.N.G.E.K.I Chart Team
&lv_5=14+
&inote_4=
&inote_5=(144){1},
{8},,,{96},,,,,,,
(145)
{16}E1,,,,E8/B7/B8,,,,B2,,,,A6/B6/E6,,,,E4,,,,E6/B5/A5,,,,E2,,,,A7/E7/B7/4,,,3,
{16}2h[8:1]/6h[8:1],,,,4h[8:1]/7h[8:1],,,,1h[8:1]/5h[8:1],,,,2h[8:1]/8h[8:1],,,,
{16}1,,2/8,,3h[4:1]/7<4[16:3],,,,,,3,,2,,1,,
{16}8h[8:1]/4,,,,2/6h[8:1],,3,,4h[8:1]/8,,7,,6h[8:1]/1,,2,,
{16}3/8,,4>1[8:1]/7<4[8:1],,,,,,,,8,,1,,2,,
{16}3h[8:1]/E8,,,,7h[8:1]/4,,3,,2h[8:1]/E6,,,,2/5h[8:1],,1,,
{16}8h[8:1]/6,,,,1h[8:1]/7,,,,2h[8:1]/E1,,,,3h[8:1]/E2,,,,
{16}5h[8:1]/2,,3,,B6/4,,5,,4h[8:1]/8,,7,,6/B2,,5,,
{16}2h[4:1]/C,,,,5h[4:2],,,,4h[4:1],,,,{48},3xb/6x,2x/7xb,1xb/8x,,,,,,,,,
{16}1xh[4:1]/7x>4[8:4],,,,,,3,3,3h[4:1],,,,,,,,
{16}8h[4:1]/2<5[8:4],,,,,,6,6,6h[4:1],,,,,,,,
{16}6<4[16:9]/8h[4:1],,,,,,2,2,2h[4:1],,,,,,,,
{16}3>5[16:9]/1h[4:1],,,,,,7,7,7h[4:1],,,,,,,,
{32}7/B1,B2,B3,B4,B5,B6,B7,B8,E1/5x,,,,,,,,1/B7,B6,B5,B4,B3,B2,B1,B8,E8/3x,,,,,,,,
{32}5/E4,E3,E2,E1,E8,E7,E6,E5,A4/8x,,,,,,,,2/E6,E7,E8,E1,E2,E3,E4,E5,A5/1xw5[12:1],,,,,,,,
{16}1b>1[8:12]*<1[8:12],,,,,,,,,,,,,,,,
{16},,,,,,,,,,,,,,,,
{24}1,,,2,,2,8,,,3,,3,8-6[12:1],,,1,,1,8,,,4,,,
{24}1,,,8,,8,2,,,7,,7,2-4[12:1],,,1,,1,2,,,6,,,
{24}1x/7x,,2,5,,5,3,,3,6,,6,4,,4,5,,5,3,,3,8,,8,
{24}1h[12:1],,7,8,,8,6,,6,3,,3,4,,4,2,,2,8,,8,1h[24:1],,,
{24}2/6,,3,4,,4,2,,2,5,,5,4,,4,7,,7,6,,6,8,,8,
{24}1xh[8:1],,,2h[8:1],,,3h[8:1],,,4h[8:1],,,5,,5h[24:3],,,6,5,,5,7,,,
{24}3x/8x,,2,5,,5,1,,1,7,,7,4,,4,5,,5,2,,2,3h[12:1],,,
{24}1,,1,7,,7,3,,3,5,,5,4x/6x,,4x/6xh[24:3],,,5,,,7,8,,8,
{24}1,,1,2,,2,3,,3,4,,4,5,,5,6,,6h[24:3],,,7,6,,6,
{24}8,,8,7,,7,6,,6,5,,5,4,,4,3,,3,2,,2,1,,1,
{24}6x,,6,5,,7,8,,6,5,,7,8,,6,5,,8,1h[8:1],,,E1,,,
{24}3,,3,4,,2,1,,3,4,,2,1,,3,4,,1,8h[8:1],,,E1,,,
{24}2,,,2,,2,5,,5,4,,4,6,,6,5,,5,7,,7,3,,3,
{24}4,,4,1,,,1/7,,,2,,2,8h[24:3],,,2,,2,4,,4,5,,5,
{48}7xpp4[16:9]*p4[16:9],8x,1x,,,,,,,,,,,,,,,,,,,,,,,,,,,,,,,,,,,,,,,,,,,,,,
{48}2xpp5[16:9],1x,8x,,,,,,,,,,,,,,,,,,,,,,,,,,,,,,,,,,,,,,,,,,,,,,
{16}6q8[16:9],,,,,,,,,,,,,,,,
{16}8,,1,,2h[8:1]/8,,6,,1/7h[8:1],,3,,4h[8:1]/8,,6,,
{16}1b-3[8:1]/5,,6,6,1-5[8:1],,8,8,1>4[8:1],,7,7,1,,8,,
{16}7-5[8:1]/1,,3,3,7-3[8:1],,8,8,7<4[8:1],,2,2,7,,1,,
{16}2-4[8:1]/8,,6,6,2-6[8:1],,1,1,2>5[8:1],,8,8,2,,1,,
{16}8-6[8:1]/4,,3,3,8-4[8:1],,1,1,8<5[8:1],,2,2,8,,1,,
{16}8x-4b[12:1]/4x,,,,8b/6x-2b[12:1],,,,6b/4x-8b[12:1],,,,4b/2x,,,,
{12}1,7,7,8,6,6,7,5,5,6x/4x,,,
{12}7xh[12:1],6h[12:1],5h[12:1],4h[12:1],3h[12:1],2h[12:1],1,1,1,5,5,5,
{16}8z4[8:4]*s4b[8:4]/4,,,,,,,,,,,,,,,,
{16}3s7[16:4]/5z1[16:4],,,,,,,,,,2,,1/3,,8/2,,
{16}7b-5[8:1]/1x,,5-1[8:1]/3,,7/1,,2,,4-2[8:1],,2-6[8:1]/8,,4/6,,8,,
{16}7x-5-1[4:1],,5/3,,7/8,,1,,2-4-6[16:3],,4/8,,2/6,,7,,
{16}8x-4[8:1],,4-6[8:1]/2,,8/3,,1,,3-7[8:1],,7-1-3-5b[16:5]/5,,3/8,,6xh[8:3],,
{16},,,,,,6/4,7/3,8h[8:1]/2,,4,,1h[8:1]/7,,5,,
{16}8bh[8:1],,5,7,3,5,2,8,6x,7,5,6,3,4,2,3,
{16}1b,5,3,8b,4,6,3,4,1,6,8,7,2,1,3,8,
{16}4xh[8:1],,1,3,7,2,6,1,3x,2,4,3,6,5,7,6,
{16}8b,2,4,1b,7,5,8,3,1,2,7,8,1x/6x,,3x/4x,,
{16}1b-3[8:1]/7x,,3-8[8:1]/5,,1/7,,8,,6-1[8:1],,1-5[8:1]/7,,2/6,,3,,
{16}4x-8[8:1],,7/8-2[8:1],,4/6,,5,,7-3[8:1],,3-8[8:1]/5,,7/8,,1,,
{16}2x-4[8:1],,4-8b[8:1]/6,,2/8-4[8:1],,7,,5x-1[8:1],,1x-7-5-3b[16:5],,5x/3x,,2xh[8:3],,
{16},,,,,,2/5,3/6,7h[8:1]/4,,5,,8h[8:1]/2,,4,,
{16}2bh[8:1],,5,3,7,5,6,1,3x,2,5,4,7,6,8,1,
{16}7b,3,5,2b,6,4,7,5,8,1,4,2,6,4,1,2,
{24}8b,7,6,5x/4x,3,2,7x/1x,6,5,4x/3x,2,1,8x/7x,1,2,3x/4x,5,6,7x/1x,2,3,4x/5x,6,7,
{16}2b,1,4,7b,8,5,3,4,1x,6,4,7,3,8,1,6,
{16}2x/7x,,3/8,,3/8,8,3,7,2,6,2,5,2/5,,3/6,,
{16}4x/7x,,3/6,,3/6,3,6,2,5,1,5,2,2/5,,3/6,,
{16}7xh[1:0]/2x,,6h[1:0]/1,,5h[1:0]/1,1,5h[1:0],2,5h[1:0],3,5h[1:0],4,5h[1:0]/4,,6h[1:0]/3,,
{16}3xh[1:0]/6x,,2h[1:0]/5,,1h[1:0]/5,5,1h[1:0],6,1h[1:0],7,1h[1:0],8,1h[1:0]/8,,2h[1:0]/7,,
{16}4x,4,6h[1:0],6h[1:0],3,3,5h[1:0],5h[1:0],1,1,7h[1:0],7h[1:0],2,2,8h[1:0],8h[1:0],
{16}3x,3,4h[1:0],4h[1:0],5,5,6h[1:0],6h[1:0],2,2,1h[1:0],1h[1:0],8,8,7h[1:0],7h[1:0],
{32}3xb/7xh[8:1],4,5,6,,8,1,2,3xh[8:1]/7x,6,5,4,,2,1,8,7xh[8:1]/3x,2,1,8,,6,5,4,3xh[8:1]/7x,8,1,2,,4,5,6,
{32}7x/1x,,,,3/5,,,,8-4[8:1],,4,,6,,2,,8b,,,,,,,,5-1[12:1],,,,6,,,,
{32}7xh[8:1]/5b,Cf,,,,,,,8-4[12:1],,,,7,,,,6xh[8:1]/8b,Cf,,,,,,,3-7[12:1],,,,2,,,,
{32}1x-5[8:1]/3b,Cf,,,,,,,1b/7x,Cf,,,,,,,2x,3,6,5,2x,3,6x,5,2x-6[12:1],3x,6x,5x,2x,3x,6x,5x,
{32}2xb,Cf,,,,,,,8-4[12:1],,,,7,,,,6xh[8:1]/8b,Cf,,,,,,,3-7[12:1],,,,2,,,,
{32}1x-5[12:1]/3b,Cf,,,,,,,7x/1b,Cf,,,,,,,7x,6,3,4,7x,6,3x,4,7x-3[12:1],6x,3x,4x,7x,6x,3x,4x,
{32}7xb,Cf,,,,,,,1-5[12:1],,,,2,,,,3xh[8:1]/1b,Cf,,,,,,,4-8[12:1],,,,3,,,,
{32}2x-6[12:1]/4b,Cf,,,,,,,2b/1x-5b[12:1],Cf,,,,,,,1b/8x-4b[8:1],Cf,,,,,,,7xh[4:1]/8b,Cf,,,,,,,
{32}3xb,4x,5x,6x,2b,3x,4x,5x,1b,2x,3x,4x,
8b,1x,2x,3x,7xb,6x,5x,4x,8b,7x,6x,5x,1b,8x,7x,6x,2b,1x,8x,7x,
{32}6x/2x,,,,,,,,4/8w4b[10.7#192:1],,,,,,,,1bh[8:23]/7bh[8:23],,,,,,,,,,,,,,,,
{16},,,,,,,,,,,,,,,,
{16},,,,,,,,,,,,,,,,
{16},,,,,,,,1x/7x,,{128}8b,E8/E1,B8,B7,B1,B6/B2,Cf,B3/B5,B4,E5,E4,
{16},,,,,,,,,,,,,,,,
&inote_6=
&inote_7=
