&title=チューリングの跡
&artist=Frums
&first=0.05
&lv_6=14
&des_6=-NICOLABULA-
&inote_6=
(180){4},{1},{4},,,{16}1-5[0.1667##0.1667],
1,{1},{8},{16}8,
7,6,5,4h[16:5],{4},{16}2,{8},{16}4,
{8},{16}3,{8},8,8-4[0.1667##0.1667],8,{1},{8},1,
1-5[0.1667##0.1667],1,{4},,{8},8,
8-4[0.1667##0.1667],{16}8,1-5[0.1667##0.1667],{8},8-4[0.1667##0.1667],{16},{32},2-6[0.1667##0.1667],{16},,{32},7-3[0.1667##0.1667],{16},,,1-5[0.1667##0.1667],
{8},{16}8-4[0.1667##0.1667],,,{32},7-3[0.1667##0.1667],{16},,{32},6-2[0.1667##0.1667],{16},,{32},5-1[0.1667##0.1667],{16},,,4-8[0.1667##0.125],
{8},{16}3h[16:5],{8},7,7-3[0.1667##0.1667],7,{16},8V25[0.1667##0.1667],{8},{16}6-3[0.1667##0.1667],
{8},{16}1V35[0.1667##0.1667],{8},7-4[0.1667##0.1667],{16},2V46[0.1667##0.1667],{8},{4}8-5[0.1667##0.1667],
{8}1-6[0.1667##0.1667],1q4[0.1667##2],{2},{4}8,
{1},{2},{16}6,
4,5,4,5,4,7,4,
5,4,5,4,8,4,5,4,5,4,{8}8-3[0.1667##0.1667],,6>1[0.1667##1],
{1},{16}3,
5,4,5,4,5,2,5,4,5,4,5,1,5,4,5,
4,5,{8}1-6[0.1667##0.1667],,3<8[0.1667##1],{1},{16}6,
4,5,3,4,2,7,4,
5,3,4,2,{4}8h[16:27],,,{8},1,
2,3,{16}4,{8},{16}5,,,,6-2[0.1667##0.9167],
{1},{8}8,
{16}8,7,6,5,8,1,{8}7/2h[8:1],{16}7,6,5,4h[8:1],,8,
,8,1,2,{8}3/5h[8:1],3h[8:1],{2}4-8[2:1],
,{8}7/2h[8:1],{16}7,6,5,4h[8:1],,8,
,8,1,2,{8}3h[8:1],5h[8:1],3h[8:1],4-8[8:3],{2},{16}4,
3,2,1,{8}8h[8:1],{16}7,6,5,4h[8:1],,8,
,8,1,2,{8}3h[8:1],7,7<5[0.1667##0.1667],{16}1,1q5[0.1667##0.1667],,8,{8}8p4[0.1667##0.1667],
{16}2,2>4[0.1667##0.1667],,1,8,7,6,5h[8:1],,2h[8:1],,8,7,6,5,4h[8:1],
,8,1,2,{4}3h[4:1],{8}7<5[0.1667##0.1667],{16}1,1q5[0.1667##0.1667],,8,{8}8p4[0.1667##0.1667],
{16}2,2>4[0.1667##0.1667],,8,7,6,{8}5h[8:1],3h[8:1],{16}5,6,7,8h[8:1],,5,
,5,4,3,{8}2h[8:1],5h[8:1],2>4[0.1667##0.1667],{16}8,8p4[0.1667##0.1667],,1,{8}1q5[0.1667##0.1667],
{16}7,7<5[0.1667##0.1667],,1,2,3,{8}4h[8:1],6h[8:1],{16}4,3,2,1h[8:1],,4,
,4,5,6,{8}7h[8:1],1h[8:1],7<5[0.1667##0.1667],{16}1,1q5[0.1667##0.1667],,8,{8}8p4[0.1667##0.1667],
{16}2,2>4[0.1667##0.1667],,8,7,6,{8}5h[8:1],1b,{16}5,2,5,3,5,4h[16:3],
{8},{16}8,4,7,4,6,4,{8}5h[8:1],{16}1,5,2,5,3,5,
{8}4,{16}8,7,6,5,4,3,1,1,,4h[8:1],2,2,,2,
,4h[8:1],3,3,,5h[16:1],{8}4,{16}6h[16:1],4,,5,3,6,2,7,
1,8,1,1,1,1,{8}1,{24}2x,3x,4x,2x,3x,4x,2x,3x,4x,2x,3x,4x,
{2}1xh[16:3],1h[16:3],
1h[16:3],1h[16:3],
1h[16:3]/8h[16:3],1h[16:3],
1h[16:3]/7h[16:3],1h[16:3],
1h[16:3]/8-4[0.1667##0.3333],1h[16:3],
1h[16:3]/7-3[0.1667##0.6667],1h[16:3],
1h[16:3]/8-4[2:1],1h[16:3],
{16}1h[16:3]/7-3[2:1],{8},{16}7,{4},,,8/2,
{16}7/2-5[8:1],{8},{16}8,{8}2,7,,6/4,
{4}5/2-8[8:1],{16}4/2-5[8:1],{8},{16}7,{8}2,6,6,{16}6,7,
{4}8/2,{16}1/7-4[8:1],{8},{16}1,{8}7,2,,3/5,
{4}4/7-1[8:1],{16}5/7-4[8:1],{8},{16}2,{8}7,1,1,{16}1-5[8:1],2,
{8}3h[8:1],{4},{16}2,2,{8},4/3-5[8:1],{4},{16}7h[16:3],
{8},{16}5,{8}7,4/6h[16:3],{16},4,{8}6,5/3,{16}4,3,
5/2-5[8:1],{8},{16}8,{8}2,1-6[8:1],4,1,{4},{8}4/5,
{16}3,4,{8}3,{16}6,5,{8}6,{16}3,5,4,6,4,5,
{4}3h[4:1],{12}5,4,4,5,4,4,5,4,4,
5,4,4,6,4,4,{16}7x,6,5,2x,3,4,8x,7,
6,1x,8,7,2x,1,8,3x,2,1,{8}4,,8,
8-4[0.1667##0.1667],{16}8,1-5[0.1667##0.1667],{8},8-4[0.1667##0.1667],{16},{32},2-6[0.1667##0.1667],{16},,{32},7-3[0.1667##0.1667],{16},,,1-5[0.1667##0.1667],
{8},{16}8-4[0.1667##0.1667],,,{32},7-3[0.1667##0.1667],{16},,{32},6-2[0.1667##0.1667],{16},,{32},5-1[0.1667##0.1667],{16},,,4-8[0.1667##0.125],
{8},{16}3h[16:5],{8},7,7-3[0.1667##0.1667],7,{16},1-5[0.1667##0.1667],{8},{16}7<4[0.1667##0.1667],
{8},{16}2-6[0.1667##0.1667],{8},8<4[0.1667##0.1667],{16},3-7[0.1667##0.1667],{8},{16}1-5[0.1667##0.1667],{8},{16}2-6[0.1667##0.1667],
{8},3-7[0.1667##0.1667],{16},4-8[0.1667##0.1667],{8},{16}5-1[0.1667##0.1667],{8},{16}6-2[0.1667##0.1667],{8},8,
8-4[0.1667##0.1667],{16}8,1-5[0.1667##0.1667],{8},8-4[0.1667##0.1667],{16},{32},2-6[0.1667##0.1667],{16},,{32},7-3[0.1667##0.1667],{16},,,1-5[0.1667##0.1667],
{8},{16}8-4[0.1667##0.1667],,,{32},7-3[0.1667##0.1667],{16},,{32},6-2[0.1667##0.1667],{16},,{32},5-1[0.1667##0.1667],{16},,,4-8[0.1667##0.125],
{8},{16}3h[16:3],{4},8,1/8,
1/8,8/7,8/7,8/7,
1/6,1/6,{32}6h[32:9],{4},{32}5h[16:5],{4},{32},4h[16:5],
{1},{4},{16}5,
4,5,4,5,4,5,4,5,4,
{4}5,1b,{8}2/8h[8:1],{16}2,3,{8}4/7,5/6,
1/8h[8:1],{16}2,3,{8}4/7,5/6,7/1h[8:1],{16}7,6,{8}5/2,3/4,
7/1h[8:1],{16}7,6,{8}5/2,4/3,2/8h[8:1],{16}2,3,{8}4/7,6/5,
2/8h[8:1],{16}2,3,{8}4/7,5/6,7/1h[8:1],{16}7,6,{8}5/2,3/4,
7/1h[8:1],{16}7,6,{8}5/2,8/3,4/6h[8:1],{16}2,3,{8}4/6,2/7,
4/6h[8:1],{16}2,3,{8}4/6,1/7,5/3h[8:1],{16}7,6,{8}5/3,7/2,
5/3h[8:1],{16}7,6,{8}5/3,8/2,4/6h[8:1],{16}1,2,{8}3/6,8/2,
4/6h[8:1],{16}1,2,{8}3/6,1/7,5/3h[8:1],{16}8,7,{8}6/3,1/7,
{4}5/3h[4:1],{16}2,1,8,7,{8}6b/3b,{16}5/4,4/5,,6/3h[16:3],{8},{16}7,
8,5,4,1,2,5,4,{8}6/3,{16}4/5,5/4,,3/6h[16:3],{8},{16}2,
1,4,5,8,7,4,5,{8}3/6,{16}5/4,5/4,,7/2h[16:3],{8},{16}4,
2,5,3,7,1,6,4,{8}6/3,{16}4/5,5/4,,2/7h[16:3],{8},{16}5,
7,4,6,2,8,3,6,{8}2/7h[8:1],{16}5,7,4,5,2,1,
{8}2h[8:1],{16}4,2,5,4,7,8,{8}7h[8:1],{16}5,7,4,5,2,1,
{8}2h[8:1],{16}4,2,5,4,7,8,{8}7h[8:1],{16}5,7,4,5,2,1,
{8}2h[8:1],{16}1,3,{8}3,2/4,{16}3/5,{8},{16}4/6,{8},5/7,
{16}5/7,{8},{16}6/8,{8},7/1h[8:1],7b-4[8:1],{4},{8}2h[8:1],
3b-6[8:1],{4},{8}8h[8:1],7b-4[8:1],{4},{8}1h[8:1],
{2}3b-6[8:1],{8}8/1h[8:1],{16}8,1,{8}7,1/7h[8:1],
{16}1,7,{8}2,8/2h[8:1],{16}8,2,{8}7,5-8[8:1]/4-1[8:1],,5pp5-8[8:5]/4qq4-1[8:5],
{1},{8}1/8h[8:1],
{16}1,8,{8}2,8/2h[8:1],{16}8,2,{8}7,1/7h[8:1],{16}1,7,
{8}2,5-8[8:1]/4-1[8:1],,5pp5-8[8:5]/4qq4-1[8:5],{1},{8}1/8h[8:1],
{16}2,7,3,{8},{16}8/2h[8:1],
,7,3,6,{8},4h[8:9]/5h[8:9],{1},{16},6/3,
7/2,8/1h[16:37],{8},8,
{16},7,,,,6,{4},{8}5,{4},{16},4,
{4},,,{16}A2,B2,
{1}Ch[8:27],
,,{4},{8},B1/B3/B5/B7,
