&title=Aliceblue(Progressive House Remix)
&artist=syatten
&first=0.74
&des=Iced Kafey
&lv_5=14
&inote_5=(63.5)
{8}
4,4,3h[32:1],3,4h[32:3]/5,6h[16:1],5h[32:1]/6h[32:1],5,
{32}
4,,,4h[32:3],6h[32:5],,,,3h[8:1],,,,5,,,,6h[8:1]/4,,,3h[32:3],,,,,6h[32:1]/2h[32:1],,,,
{64}
7/1b,2,3,4,5,6,7,8,
{32}
1q5[16:1],,,2h[32:3],1p5[16:1],,,,8h[32:1],,,,2,,,,4v7[16:1],,,5h[32:3],4v1[16:1],,,,3h[32:1],,,,5,,,,
4p8[16:1],,,4h[32:3],5v7[16:1],,,,6h[32:1]/4,,,,3/5,,,,5<1[16:1],,,5h[32:3],4qq2[16:1],,,,3h[32:1]/5,,,,6/4,,,,
7V51[8:1],,,6h[32:3],4,,,,7/5,4,,,3,,,,6V48[8:1],,,5h[32:3],3,,,,6/4,3,,,2,,,,
3v1[16:1],,,4h[32:3],6,,,,3/5,6,,,4,,,,4>8[16:1],,,5h[32:3],7,,,,4/6,7,,,
{64}
5b,4,3,2,1,8,7,6,
{16}
5<5[8:6],,4,,3h[32:1],,4,,6,,7,,1h[32:1],,2,,
{32}
4>4[8:6],,,6,5,,6,,6h[32:1],,,,5,,,,3,,,3,2,,1,,8h[32:1],,,,7,,,,
6h[32:3],,,3h[32:3],,,5h[32:3],,,2h[32:3],,,4h[8:1],,,,3h[32:3],,,6h[32:3],,,4h[32:3],,,7h[32:3],,,5h[8:1],,,,
8h[16:3],,,6,5-1[16:1],,4h[32:3],,,6h[32:3],,,5,,,,3,2,,3,4q1[16:1],,6h[32:3],,,3h[32:3],,,4,,,,
2h[32:3],,,,4p8[16:1],,3,,,,3,,4,,5,,7h[32:3],,,,5q1[16:1],,6,,,,6,,5,,4,,
2h[32:3],,,,4>8[16:1],,3,,,,3,,4,,5,,7h[32:3],,,,5<1[16:1],,6,,,,6,,5,,4,,
2h[32:1]/3h[32:1],,,4h[32:1],3v1[16:1],,4h[32:1]/5h[32:1],,,5h[32:1],6,,5h[32:1]/3b,,,,7h[32:1]/6h[32:1],,,5h[32:1],6v8[16:1],,5h[32:1]/4h[32:1],,,4h[32:1],3,,4h[32:1]/6b,,,,
3h[32:1]/4h[32:1],,,7h[32:1],8w4[16:1],,5h[32:1]/6h[32:1],,,1h[32:1],2,,8b,,,,2h[32:1]/1h[32:1],,,6h[32:1],5w1[16:1],,8h[32:1]/7h[32:1],,,4h[32:1],3,,5b,,,,
1h,2,3pp1[8:1],4h[32:3],,,1,,,8h[32:3],3,,,,8pp6[8:1],,7h,6,5,2h[32:3],,,8,,,5h,5pp3[8:1],,4h[8:1],2,1,8,7,6,5,2h[32:3],,,,,,1h[32:3],2pp8[8:1],,,,2,3,4h,7h[16:1],2,,,,6h[32:3],,,,2,,4h/8h,3/7,2/6,,
5h,6,7pp5[8:1],8h[32:3],,,5,,,4h[32:3],7,,,,4pp2[8:1],,3h,2,1,6h[32:3],,,4,,,1h,1pp7[8:1],,8h[8:1],6,5,4,3,2,1,6h[32:3],,,,,,5h[32:3],6pp4[8:1],,,,6,7,8h,3h[16:1],6,,,,2h[32:3],,,,6,,8h/4h,7/3,6/2,,
2h[32:3],1,,,4-8[16:1],,4h[32:3]/3-1[32:1],,,,5,,4h,,3,,7h[32:3],8,,,5-1[16:1],,5h[32:3]/6-8[32:1],,,,4,,5h,,6,,
3h[32:3],2-5[16:1],,,4>8[16:1],,6h,4,,2h,4h[16:1],,,,6,,6h[32:3],7-4[16:1],,,5<1[16:1],,3h,5,,7h,5h[16:1],,,,3,,
1h[32:3],8V25[32:3],,,5V31[16:1],4,6h,,,8h,7,,8h,7,6,,5h[32:3],4V61[32:3],,,1V75[16:1],8,2h,,,4h,3,,4h,3,2,,
1h,1pp8[8:1],,5h,5pp4[8:1],,2h,6,,1h,5,,5h,,,,2h,,1,8h[32:3],1,,2,,3h[8:1],,4,,
{64}
5b,4,3,2,1,8,7,6,
{32}
5h[32:3]/4,3,2,1h[32:3],,,4,,,5h[32:3]/3b,,1-5[16:1],2b,,5,4b,6h,7b,8,3h[32:3]/1,,,,,,8h[16:1]/1b,1,1b-5[16:1],2h[8:1],3,4,5,6,7,8,3h[32:3]/1,,,,,,5h[32:3]/4b,3pp2[8:1],2b,,,6/8,7/1,8h[32:3]/2,3h[32:1],,,,,7h[32:3],,,8b,8,1b,2h/6h,3/7b,4/8,1b/5,
4h[32:3]/8,7b,6,5h[32:3],,,8,,,1h[32:3]/7b,,5-1[16:1],6b,,1,8b,2h,3b,4,7h[32:3]/5,,,,,,4h[16:1]/5b,5,5b-1[16:1],6h[8:1],7,8,1,2,3,4,7h[32:3]/5,,,,,,1h[32:3]/8b,7pp6[8:1],6b,,,2/4,3/5,4h[32:3]/6,7h[32:1],,,,,3h[32:3],,,4b,4,5b,6h/2h,7/3b,8/4v1[16:1],5b/1,
6,7-3[16:1],8,1,2v5[16:1],,4b,,,7b,,,2b,1,8v3[16:1],7,6,5-1[16:1],4,3,2v7[16:1],,8b,,,5b,,,2b,3,4p8[16:1],5,6,7p3[16:1],8,1,2>5[16:1],,4b,7,,7b,2,,2b,1,8q4[16:1],7,6,5v7[16:1],4,3,2,,8b,5,,5b,2,,
{64}2b,3,4,5,6,7,8,1,
{32}
2h[32:3]/5-3[16:1],,,7h[32:3],4-6[16:1],,,,5,2h,,,4/7h,,,,6h[32:3]/1-7[16:1],,,3h[32:3],8-2[16:1],,,,1,6h,,,8/3h,,,,4h[32:3]/7v5[16:1],,,1h[32:3],6v8[16:1],,,,7,4h,,,6/1h,,,,5h[32:3]/2v4[16:1],,,8h[32:3],3v1[16:1],,,,2,5h,,,3/8h,,,,
6,,,3,,,5,,,2,,,4h[8:1],,,,3,,,6,,,4,,,7,,,5h[8:1],,,,1,,,1/8,,,2/7,,,3/6,,,4h[8:1]/5h[8:1],,,,,,,4/5,,,3-6[4:2]/6,,,2/7,,,1/8,,,
E
