&title=快眠!安眠!スヤリスト生活
&artist=水瀬いのり
&first=0
&des=もふもふウサギ
&lv_5=12+
&inote_1=
&inote_2=
&inote_3=
&inote_4=
&inote_5=(141)
{1},,,{4},,,{8},
{1}4b/5b,3b/6b,2b/7b,{8},{4}18,27,36,
{16}4,5,4,5,36,,7,8,7,,2,1,2,,7,8,6,,2,1,{4}3q4[4:1],
{8}4<2[4:1],4,6h[4:1],,,,{4}2b-7[4:1]/4bz8[4:1],,{8},6,5,4,
{4}37,2-6[8:1]/6-2[8:1],2-8[8:1]/6-4[8:1],,
{16}
45,,2,1,3h[8:1]/8b,,7h[8:1],,8,6,1,,2b/5h[4:1],,,,
4,,7,8,6h[8:1]/1b,,2h[8:1],,1,3,8,,4h[4:1]/7b,,,,
8,,3,4,2h[8:1]/5b,,6h[8:1],,5,7,4,,3b/8h[4:1],,,,
1,,6,5,7h[8:1]/4b,,3h[8:1],,4,2,5,,6h[4:1]/1b,,,,
{8}5,,5,6,7h[4:1],,8,{16}1,8,
{8}1-3[8:1],1-7[8:1],{4}1-5[8:1],,8V63[4:1],
1-3[8:1],1v8[8:1],,{8}3^8[8:1],4,
3,,7V51[4:1],8,7,,2,,
38,7,16,2,45,3,45,{16}6,5,{8}7-3[8:1],7,8,1,
{4}2-6[8:1],{16}12,,1,8,
{4}7^2[8:1],{8}7,3,4-1[8:1],5-8[8:1],4,5,1,28,37,46,{4}5-1[8:1],,
{16}
7h[8:3],,,3q5[16:5],,,{8}4,4h[4:1],,,{16}4,5,
3h[8:3],,,7q1[16:5],,,{8}8,8h[4:1],,,,
3h[16:3]/8h[16:3],,,1h[8:1]/6h[8:1],,8,71,62,
{4}5-3[8:1]/3,5/1-5[8:1],7-1[8:1]/1,67,
{16}2V86[4:1]*V46[4:1],,,2,,,{8},,78,78,,
{16}2V47[4:1]/6V83[4:1],,,26,,,{8},,12,12,,
4-1[8:1],5-8[8:1],4-2[8:1],5-7[8:1],
4-8[8:1],5-1[8:1],4>5[4:3],5,
{4}4,7,1,4,
4pp8[8:3]*qq8[8:3]/8,,,17,4pp8[8:3]/6qq2[8:3],,,{8}37,
3^8[8:1]/5h[4:1],,,6,7,{16}7-4[16:1]/8-3[16:1],,,78,,,
{8}
2h[4:1]/5^8[8:1],,,2,1,{16}1-4[16:1]/8-5[16:1],,,18,,,
{8}
3^8[8:1]/6,,3/4^7[8:1],5,3^8[8:1]/4,2,3/4p2[8:3],5,
34,{4}2<4[2:1],4,2,{16}8,,5,4,
6,,4,5,3,,6,5,7,,3,4,{8}2,12,
3-1[8:1]/8-4[8:1],,38,,5-7[8:1]/8-4[8:1],58,58,,
{16}
3h[16:3],,,2h[16:3],,,1h[8:1],,
6h[16:3],,,7h[16:3],,,8,,
{4}1b-5[8:1]/8b-4[8:1],1b^4[8:1]/8b^5[8:1],1b/8b,{8},
6^1[8:1]/4h[4:1],,,3,2,{16}2-5[16:1]/1-6[16:1],,,21,,,
{8}
7h[4:1]/4^1[8:1],,,7,8,{16}8-5[16:1]/1-4[16:1],,,81,,,
{8}
6^1[8:1]/3,,6/5^2[8:1],4,6^1[8:1]/5,7,6/5q7[8:3],4,
65,{4}7>5[2:1],5,7,{16}1,,8,1,
8,,3,4,2
,,6,5,7,,87,,{8}6-8[8:1]/1-5[8:1],16,
16,,4-2[8:1]/1-5[8:1],41,41,,36,,
{4}7-2[4:1]/8z4[4:1],,{8},{16}1,5,2,6,3,7,
{4}48,1-5[8:1]/5-1[8:1],1-7[8:1]/5-3[8:1],,
{16}
6h[8:1]/5,,8,7,1h[8:1]/6b,,8h[8:1],,1,7,2,,6b/3h[8:3],,,,
4,,1,2,8h[8:1]/3b,,1h[8:1],,8,2,7,,3bz7[1:1]/6h[4:1],,,,
{1},,,
