&title=量子の海のリントヴルム
&artist=黒猫ダンジョン
&first=0.03
&des=量子の海のベト
&des_5=7thFurple vs 5thBeto
&des_6=量子の海のベト
&lv_5=14
&lv_6=14
&inote_5=(280){4},,,,,,,,,,,5/1-5[4:13],
{1},,,{4},,{8},4,
5,6,
7,8>3[8:3],,,,,,,1h[8:3],
,,4,,3/8,,2/8,
,,{4}6/8,5/8,{8}6,7,
,8/2,,3/1,,2/3h[8:5],1,8,
7,6,5h[4:1],{16}1,8,{2}7b-3[4:5],
{4},,,,,8h[8:3],
{8},5,,6/1,
,7/1,,,{4}3/1,4/1,
{8}3,2,,1/7,,6/8,,7/6h[8:5],
8,1,2,3,4h[4:1],{16}8,1,{4}2b-6[4:5],
{8},,,,,,,,,,,,1/3,
,,5/7,
,2/8,,4/3,{4}3/4-8[8:1],1,
,8/6,{8},4/2,,7/1,
,5/6,{4}5/6<1[8:1],{2}2,
4/8h[2:1],7h[2:1],
6h[2:1],5h[2:1],
{4}1h[2:1],2,2h[2:1],3,
3h[2:1],4,{2}4h[2:1],
{8}1,2,8,3,7,8,6,1,
5,6,7,8,1,2,3,4,
8,1,2,3,1,8,7,6,
4,3,2,1,8,7,6,5,
{4}4h[4:1],{8}2,2h[4:1],,1,{4}1h[4:1],
{8}8,8h[4:1],,6,{4}6h[4:1],{8}8,8h[4:1],
,1,{4}1h[4:1],{8}2,2h[4:1],,,4,
3,2,7,6,5,8,1,
2,4,5,6,7,1,6,1,
3,8,2,7,1,8,1,7,
1/6,6/1,,4-1[16:3]/1<6[16:3],,,,,5h[8:1],
7,8,6h[8:1],2,3/6,,,8/3,
2/8,,5-8[16:3]/8>3[16:3],,,,,2h[8:1],
8,7,1h[8:1],5,4/1,,,{4}7-4[4:1],
4-1[4:1],1-6[4:1],6-3[4:1],
3-8[4:1],8-5[4:1],5-2[4:1],{8}2,2h[8:3],
,,1,8,7,6/2,3,4,
{4}6/5,{8}5,7,{4}5,5/1,
{8}7,1,8,2,7,8,1,2,
4,2,4,2,{4}4,{8}8,7h[4:1],
,2,1,3,8,4,7,7,
5,4,3,2,1,8,7,6,
1,8,7,2,1,8,3,2,
1/4,5,6,7,8,1,2,3,
8,1,2,7,8,1,6,7,
8/5,5,8,2b/7,,,,,8,
1,2,7/3,8,1,6/2,7,
8/5,4,3,2,1,8,7,6,
1,8,7,2/6,1,8,3/7,2,
1/4,4,1/4,8b/3,,,,,7,
1,8,2,1,2,3,4,
2,7,8,5-8[4:1],,,,,2,
8,1,7,8,7,6,5,
1,8,7,2,1,8,3,2,
1/4,4,{4}4-8[8:1],{8}8/4,,,6,
{4}6-3[8:1],1/6,{8},1-5[8:1],,6/1,
,,{4}8>3[8:1],{2}8/4,
{8}1,2,8,3,7,2,5,8,
7,2,1,4-7[4:1],,,,,1,
3,2,4,6,8,7,1,
8,2,4,5>2[4:1],,,,,8,
8,{4}8,{8}3/1,1/3,,6/1,
{4}1/6,{8}7/8,7/8,,1,,3,
,,{4}1/5h[4:3],1,8,
{8}1,1,4,4,7,2,{4}8-4[8:1],
{8},2-5[8:1],,,7-4[8:1],,,1>4[8:1],
,,{4}8-5[8:1],{8}8,3-6[8:1],,3,
{4}5-8[8:1],{8}5,1-5[4:1],,,{4}3b,
{8},,,,,,,,,4,
4,4,{4}4,{8}1,1,
7,7,2,8,2,2,1,8,
7,6,4,3,2,1,8,7,
6,5,1b,5,1,4,1,3,
1,2,1,8,7/2b,6,2,5,
2,4,2,3,2,1,8,8,
2,2,7,1,7,7,8,1,
2,3,5,6,7,8,1,2,
3,4,8b,4,8,5,8,6,
8,7,8,1,2/7b,3,7,4,
7,5,7,6,7,8,1,1h[4:1],
7,7h[4:1],8,8h[4:1],5,5h[4:1],{4}8,
{8}5,8,6,1,7,2,{4}8-5[4:1],
5-2[4:1],2-7[4:1],7-4[4:1],{8}8,1,
2,3,5,6,7,8,3,4,
3,8/2,,7/1,,7,6,5,
6,1/7,,8,2,1,3,3,
8,8,1,6,8,5,8/4,1/5,
2/6,3/7,4,5,6,7,8,8h[4:1],
2,2h[4:1],1,1h[4:1],4,4h[4:1],{4}1,
{8}4,1,3,8,2,7,{4}1-4[4:1],
4-7[4:1],7-2[4:1],2-5[4:1],{8}1,8,
7,6,4,3,2,1,6,5,
6,1/7,,2/8,,2,3,4,
3,8/2,,1,7,8,8/6,6,
1,1,8,3,1,4,1/5,8/4,
7/3,6/2,1,8,7,6,1h[4:1],4,
3,1h[4:1],4,3,{4}1b<6[8:3],{8}4,3,
2,1,8,7,{4}6,{8}8h[4:1],6,
5,8h[4:1],6,5,8h[4:1],6,5,2>5[8:3]/7>2[8:3],
,,,,,,8h[4:1],5,
6,8h[4:1],5,6,{4}8b>3[8:3],{8}5,6,
7,8,1,2,{4}3,{8}1h[4:1],3,
4,1h[4:1],3,4,1h[4:1],3,4,7<4[4:1]/2<7[4:1],
,,,,,,{4}3/7-3[8:3],
{8},,,,7,1,7,2,
8,2,6,8,7,3,1,2,
7,7,8,8,1,1,3,3/2,
,6/8,,,2,8,2,7,
1,7,3,1,2,6,8,7,
2,2,1,1,8,8,6,6/7,
,3/1,,,7/8,7/8,7/8,1,
2,3,5/4h[4:1],6,7h[8:1],1,2,3,
8,7,6,2/5,1,8,7/6,6/7,
,2/4,,,1-4[8:1],8,7,6,
5,4,3-6[8:1],2,1,8,7,6,
5-2[8:1],6,7,8,1,2,3-8[8:1],4,
5,6,7,8,{2}1b-5[8:5],
{8},5b-2[8:5],,,,,{4}2b<7[4:13],
{8},,,6b>3[8:21],
E
&inote_6=(280){4},,,,,,,,,,,B2/B3/E3/Ch[4:15],
{8},6xh[8:3],,,,,,,6h[8:3],
,,,,,,5h[8:3],
,,,,,,{4}5h[8:3],
{8},,,,E5,E6,E7,E8,
E1,,,E5,B4/B5,B3/B6,E3/E7,A2/A7,
8x/1x,,,7/1,,8/2,,3/1,
{4}3/1,8/2,7/1,{8}6/8,6/8,
,1/3,,8/1,,2,7,3,
6,4,5,{16}1-5-3-6-8[8:9]/8-4-6-3-1[8:9],2x/7x,{2}3x/6x,
{16},,,,,,,,,,,,,,,,8x,
1,2,3,{4}4/5,{8},6/8,,3/1,
,8/2,{4}8/2,5/7,3/1,
{8}6/8,6/8,,1/3,,8/1,,7,
2,6,3,5,4,{16}1-5-3v8-6[8:9]/8-4-6v1-3[8:9],7x/2x,{4}6x/3x,
{1},{4},{16}4x,
3x,2x,1x,{4}5/8bxpp3[8:9],{8}6,6h[4:1],
,,,7,{4}7-3[8:1],C,
,4/1bqq6b[8:9],{8}3,3h[4:1],,,,2,
{4}2-6b[8:1],{2}C/B2/B6,
{4}8x-5[2:1],8x,5x-2[2:1],A5,
2-7[2:1],A2,7-4[2:1],A7,
4-1[2:1],A4,1-6[2:1],A1,
6-3[2:1],A6,{8}3,2,{4}1h[8:1],
{8}1x,8,2,7,1x,8,3,6,
1x,8,4,5,8x,7,5,6,
1x,8,4,5,2x,1,3,4,
8x,8,2,2,4,4,{4}6h[4:1],
5b-2[8:1],{8}5,1-6[8:1],,1,{4}3-8[8:1],
{8}3,7-4[8:1],,7,1,2,3,5,
6,7,{4}4h[8:5],{8}2,2,,6,
4,5,4,7,8,7,5,6,
5,1,2,1,7x,6,5,8x/4,
1,2,3x/7,4,5,6x,7,8,
5/1bx-5[8:1],5,,6<1[8:1],,,,,4,
8,8,2,7,7/8,,,4/8b-4[8:1],
4,,3>8[8:1],,,,,5,
1,1,7,2,2/1,,,{4}Cf/6b-4[4:1],
4x-2[4:1],2-8[4:1],8x-6[4:1],
6-4[4:1],4x-2[4:1],2-8-6[2:1],{8}8x,8xh[8:3],
,,,,8,7,{4}8,
6/8h[8:1],{8}8h[8:1],5,{4}8h[8:1],8/4,
1h[8:1]/5h[4:1],{8}E3/B2,B7/E7,,,{4}4h[8:1]/8h[4:1],
{8}B6/E6,B2/E2,,,{4}1x/5x,{8}4/8,4-2-5-1[8:5]/8-6-1-5[8:5],
,,,,,,,,3,
7,2,6,1,5,8,4,
8xh[4:1],5,5,1h[4:1],6,6,2h[4:1],7,
7h[2:1],3,4,5,6,7,8,1,
2xh[2:1],3,4,5,6,7,8,1,
2,2z6[8:3],,2b/6,,,,,1xh[4:1],
4,4,8h[4:1],3,3,7h[4:1],2,
2h[2:1],6,5,4,3,2,1,8,
7xh[2:1],6,5,4,3,2,1,8,
7,7s3[8:3],,7b/3,,,,,8,
1,5,4,7,2,6,3,
5,1x/6x,2x/7x,3x>8[4:1]/8x<5[4:1],,,,,4,
8,5,1,6,2,7,3,
8h[4:1],4,4,8h[4:1],4,4,{4}8h[8:1],
{8}1/3,1/3,{4}1/3,{8}6/8,6/8,,5/3,
{4}3/5,{8}8/2,8/2,,6/8,,6/4,
,,{4}7/6,{2}7-5[8:1]/6-8[8:1],
{8}2x,1,4,5,2,7,3,6,
4,8/3,7/2,6<1[4:1]/1>4[4:1],,,,,5,
1,4,8,3,7,2,6,
1,3,5,7h[8:3],,,,,8/6,
8/6,{4}8/6,{8}3/1,3/1,,4/6,
{4}6/4,{8}1/7,1/7,,3/1,,3/5,
,,{4}2/3,4/1,6q3[2:1]/7p2[2:1],
{8},,,,,,2,8,
2,7,1,7,3,8,3,6,
1,6,4,8,3,5,1,6,
4,1,2,5,8,7,{4}5b/Cf,
{8},,,,,,,,,4/5,
4/5,4/5,{4}4/5,{8}3,8,
2,6,1,7-4[8:1],,7x/1,,2,
3,4,6,7,8,3,1,2,
{4}8-4b[8:1],4x/8bx-2-4v7-5[4:3]`Cf,,,,1-5b[8:1],
{2}5x/1bx-7-5v2-4[4:3]`Cf,
{8},,,,,,6,1,
7,3,8,2-5[8:1],,2x/8,,7,
6,5,3,2,1,6,8,7,
{4}1-5b[8:1],5x/1b<5qq4[4:3]`Cf,,,,8-4b[8:1],
{2}4x/8b>4pp5[4:3]`Cf,
{8},,,,,,3,3,
1,2,8,3,7,4,6,3,
6,2,6,1,6,8,{4}6-3[4:1],
3-7[4:1],7-2[4:1],2,{8}5,4,
3,2,8,8,4,4,6-1-7-4[2:1],5,
6,,,3,{4}3,{8}3-8[8:1],4-7[8:1],
3,4,,1,{4}1,{8}6,6,
8,8,1,1,3,3,8-4[8:1],8,
2-6[8:1],2,5-1[8:1],5,4,3,2,8,
1,7,1,6,2,5,3,6,
3,7,3,8,3,1,{4}3-6[4:1],
6-2[4:1],2-7[4:1],7,{8}4,5,
6,7,1,1,5,5,3-8-2-5[2:1],4,
3,,,6,{4}6,{8}6-1[8:1],5-2[8:1],
6,5,,8,{4}8,{8}3,3,
1,1,8,8,6,6,1-5[8:1],1,
7-3[8:1],7,4-8[8:1],4,5,6,{4}7-5[8:1],
{8}7/2,2-4b[8:1],,1/2,{2}1-5-7-4-2[4:3],
{4},,,8-4[8:1],
{8}7/8,7-5[8:1],,3/7,{4}3-1[8:1],{8}3/8,8b-4-6[8:3]*-4-7[8:3],
,,,,,,{4}2-4[8:1],
{8}2/7,7-5b[8:1],,8/7,{2}8-4-2-5-7[4:3],
{4},,,1-5[8:1],
{8}2/1,2-4[8:1],,6/2,{4}6-8[8:1],{8}6/1,1bz5-3[2:1]*s5-7[2:1],
,,,,,,{4}Cfh[4:3],
{8},,,,1bV75[8:3],,,5V31[8:3],
,,{4}1V75[8:3],{8},5V31[8:3],,,1V75[8:3],
,,5-3-1-7[8:5],,1,1,1-5[8:1],
,,,,4bxV68[8:3],,,8V24[8:3],
,,{4}4V68[8:3],{8},8V24[8:3],,,4V68[8:3],
,,8-2-4-6[8:5],,4,4,4-8[8:1],
,,,,7b,1,8,{16}3/7h,6,
{8}3/5h,3,8b,2,1,{16}4/8h,7,{8}4/6h,4,
{16}2b,1,8,7,6,5,{8}4,2,8,6,8-4[8:1]*s4[8:1],
,8,,,2b,8,1,{16}8h/2h,7/3,
{8}6h/4h,5,7b,1,8,{16}1h/7h,2/6,{8}3h/5h,4,
{16}7b,8,7,8,7,8,{8}6,1,5,2,4,
1h[8:1],{16}5,4,3,2,1/3,8/4,{2}7b/5b-7-3[8:5],
{8},3b-5-1[8:5],,,,,{4}1b-7-3[1:3],
{8},,,7w3b[8:19],
E
