&title=Snow Desert
&artist=WyvernP
&first=0.09
&des=çİş
&lv_5=13+
&inote_5=(125){4}1h[8:2],2h[8:2],3h[8:2],4h[8:2],
2h[8:2],3h[8:2],4h[8:2],5h[8:2],
3h[8:2],4h[8:2],5h[8:2],6h[8:2],
4h[8:2],5h[8:2],6h[8:2],7h[8:2],
{12}1,2,3h[12:2],5,6,7h[12:2],2,3,4h[12:2],6,7,8h[12:2],
3,4,5h[12:2],7,8,1h[12:2],6,5,4h[12:2],2,1,8h[12:2],
5,4,3h[12:2],1,8,7h[12:2],4,3,2h[12:2],8,7,6h[12:2],
2,1,8h[12:2],6,5,4,23,1,8,67,5,4,
2/3-6[12:1],,,2,,1,1/4-7[12:1],,,,8,8,
1/3-6[12:1],,{24}3,2,{12}1,,8,1/4-7[12:1],,,8,,8,
1/3-6[12:1],,,,2,1,8/4-7[12:1],,{24}1,2,{12}3,,{24}2,1,
{12}8/3-6[12:1],,,1,,1,1/4-7[12:1],,{24}1,2,{12}3,,,
8/5-2[12:1],,,7,,8,8/6-3[12:1],,,,7,8,
1/5-2[12:1],,{24}1,8,{12}7,,7,7/6-3[12:1],,,8,,1,
8/5-2[12:1],,,,1,8,7/6-3[12:1],,{24}6,7,{12}8,,{24}1,8,
{12}7/5-2[12:1],,,6,,8,1/6-3[12:1],,{24}8,7,{12}6,,,
2b-5[4:1],,,5-8[4:1],,,8-3[4:1],,,3-6[4:1],,{24}8,7,
{12}6>1[4:2],,,,1,8,1-6[4:1],,6,{24}6-1[4:1],5,{12}4,,
1-4[4:1],,4,4<7[4:1],,,7>2[4:1],,2,2>5[4:1],,5,
5,,,2<4[4:1],,,{24}6,5,4,3,2,1,{12}8,,4b/8b,
,,,5<8[4:1],,,8>3[4:1],,,3<6[4:1],,{24}8,7,
{12}6p8[8:2],,,,8,8,1,,2,2/7v4[8:1],,,
7/2v5[8:1],1,8,7v4[8:1]/2,8,1,7/2,,2h[12:1],3h[8:3],,7,
7>5[8:2],,,{24}3,4,5,6,7,8,1,8,7,6,5,4,{12}3,1,1,
6h[4:1],5,4,3h[4:1],4,5,6h[4:1],5,4,3h[4:1],4,5,
6h[4:1],4,3,2h[4:1],5,6,7h[4:1],4,3,2h[4:1],5,6,
7>7[8:8],,4,47,,4,4,,1,1,,,
7<8[8:7],,3,3,,1,1,,8,8,,,
3<3[8:8],,,2h[12:1],,,1h[12:1],,,8h[12:1],,,
3>7[8:4],,,,8,8,8,,6,6-1[8:1],,,
6/3-8[8:1],4,5,6-1[8:1]/3,5,4,6/3,,3,3-8[8:1],,,
3-5[8:1],7,7,3-8[8:1],6,6,3-7[8:1],5,5,3,4,4,
{1}8>8[8:8]/4-8[8:4],8qq4[8:8],4qq1[8:8],1<5[8:4],
{12}48,7,7,48,3,3,26,7,7,26,3,3,
15,4,4,15,8,8,37,6,6,37,2,2,
2b/4,35,46,57,68,17,{24}1b,2,3,4,5,6,{36}7,8,1,2,3,4,5,6,7,
{4}8-4[8:4]/5b,,,3bqq8[16:15],
{12}3b<6[8:2],,,,,,,,8>5[16:9],,7,7,
5v7[8:2],5,5,5>8[8:6],,,,,,8-4[8:2],,,
8V26[8:4],,,,,,,,7,7-3[8:1],7,7,
7-2[8:1],8,8,7-4[8:1],6,6,7-3[8:1],8,8,7pp4[16:15],,,
7>2[8:2],,,,,,,,4<1[16:9],,3,3,
1v4[8:2],1,1,1<4[8:6],,,,,,4-8[8:2],,,
4V62[8:4],,,,,3,3,4,4,4,3,3,
{24}25,,3,4,3,,2-5[8:1]/7,,6,5-1[8:1],6,,
{4}2b/7-3[8:1],7b,
2/8-3[8:1],7/8-5[8:1],2/8-3[8:1],7/8-5[8:1],
1/8>6[8:4],78,7-2[8:1],7<1[8:4],
8-5[8:1],8,4-8[8:1],4/6-1[8:1],
{12}6-3[8:1],5,5,6,7,7,{24}74,,6,5,6,,7-4[8:1]/2,,3,4-8[8:1],3,,
{12}2-5[8:1]/7,,,2<8[8:1],,,2-5[8:1]/7-5[8:1],,,2<8[8:1]/7-3[8:1],,,
2-4[8:1]/7-4[8:1],,,2-6[8:1]/7>1[8:1],,,2-5[8:1]/7-5[8:1],,,27,,,
7/8>5[8:5],,,,,,7-3[8:1],,,7,,,
4h[12:2]/8h[12:2],,,3h[12:2]/7h[12:2],,,2h[12:1]/6h[12:1],,{24}26,15,4qq5[8:14]/8qq1[8:14],,,,,,{1}4b/8b,,
{12}3/4-7[12:1],,,3,,2,2/3-6[12:1],,,,1,1,
1/4-7[12:1],,{24}3,2,{12}1,,1,1/3-6[12:1],,,8,,8,
8qq2[8:5],,,,,,,,,,,,
4qq6[8:5],,,,,,,,,,,,
{12}6/5-2[12:1],,,6,,7,7/6-3[12:1],,,,8,8,
8/5-2[12:1],,{24}6,7,{12}8,,8,8/6-3[12:1],,,7,,7,
{1}7-3[8:7],2-6[8:7],5s1[8:12],,2-5[8:6],7-4[8:6],
{12}8z4[8:14],,,8,,4,4,,,,6,6,5,,{24}3,4,{16}3,,,8,8b,,,,,,,
