&title=marigold
&artist=M2U
&first=0.16
&des=GRandAKA
&des_5=GRandAKA
&lv_5=14
&inote_5=(160){4},,,,{1}6h[4:3]/4h[4:3],
3h[4:3]/5h[4:3],
{2}4/7h[4:7],B2/E3/B3,
E1/B8/B1,B7/E7/B6,
{4}B4/B5/E5,8/2h[4:1],3h[4:1],4h[4:1],
{2}5h[4:1],3h[4:1]/7h[4:1],
{4}4/8h[8:3],4,5/7h[8:3],5,
4/6h[8:3],4,3/5h[4:1],3,
{8}C,,,B7,B6,,,B2,
B3,7,6,5,{16}4,,,3,,,{8}5,
{16},4,{48},,,,,,,,,,,,{24}E6,E5,E4,{1},{4},{16},,,{48}E8/E2,
E7/E3,E6/E4,
{4}E5f,{16}2,7,2,7,{4}1-5[8:1]/8-4[8:1],8/1,
7/2<7[8:1],6>3[8:1],{16}3,,,1,{4}8/2h[4:1],
{16}7,,,6/2,{8}6/2,{24}E4,B4,B5,{4}E6,7b/2b,
{16}6/3,,,1/8,{4}1/8,5/6h[4:1],{16}8,1,2,3,
{8}4/7,{16}6,6,4,5,3,4,{4}2-6[8:1]*-5[8:1],2,
{8}1/7,{16}3,4,{8}2h[8:1],{16}6,5,{8}7h[8:1],{16}2,2,4,3,5,4,
6,,,7/3,{8}7/3,{24}E6,B5,B4,{4}E4,2b/7b,
{8}4/5,{16}3,4,3,4,{8}3,4/5,{16}6,5,6,5,{8}6,
4/5,{16}2,4,2,4,{8}2,5/4,{16}7,5,7,5,{8}7,
6/4,{16}2,1,2,1,{8}2,3/5,{16}7,8,7,8,{8}7,
6/4,{16}3,5,3,5,{8}3,2/6,3/7,4qq1[4:3]/8qq5[4:3],5/1,
,,,,,,,,{2}6h[4:1]/4h[4:1],
7/3,
3h[4:1]/5h[4:1],2/6,
7h[8:3]/4h[4:1],5h[4:1]/2h[4:1],
{8}7/4,6,5,4,6/3,5,4,3,
{2}8h[4:1]/2h[4:1],6/4,
7h[4:1]/1h[4:1],5/3,
{8}4h[4:1]/6h[4:1],{16},,,,1/8,8/1,{4}7<6-4[8:1]/2>3-5[8:1],2/7,
{8}7/3,6,5,4,6/3,5,4,3,
2/6,5,4,3,7/2,6,5,4,
{2}5h[4:1]/3>8[8:1],4h[4:1]/6<1[8:1],
5h[4:1]/3>8[8:1],{16}6/4,,,8/1,{4}8/1,
{8}5/2,3,4,5,6/3,4,5,6,
{4}7h[8:1]/4h[8:1],2h[8:1]/5h[8:1],8h[8:1]/3h[8:1],1h[8:1]/6h[8:1],
{8}7x/4x,{16}3,4,2,6,5,7,{4}1b/8b,5b/4b,
7b/2b,{16}2,7,1,8,{4}7x<6-4b[8:1]/2x>3-5b[8:1],2/7,
{8}1/6,{16}7,8,{8}7<4[8:1],1/6,{4}7xh[4:1],{16}3,4,{8}2,
8/3,{16}2,1,{8}2>5[8:1],3/8,{4}2xh[4:1],{16}6,5,{8}7,
{16}3/8,4,5,6,7,8,1,2,7/3,6,5,4,3,2,1,8,
2/7,3,4,5,6,7,8,1,2/6,5,4,3,2,1,8,7,
{8}6/2,{16}3,4,{8}3>8[8:1],5/2,{4}3xh[4:1],{16}7,5,{8}6,
4/7,{16}6,5,{8}6<1[8:1],4/7,{4}6xh[4:1],{16}2,4,{8}3,
6/4,{16}7,8,{8}7,6/4,5/3,{16}2,1,{8}2,3/5,
6/4,{16}7,7,{8}8,4/6,3/5,{16}2,2,{8}1,3/5,
4x/6xh[2:1],,,4,3h[2:1],,,5,
6h[2:1],,,5,4h[8:3],,,8,
2x/7x,3,4/6,5,2x/7x,6,3/5,4,
6x/3x,{16}4,5,3,6,2,7,{4}1x/8x,5bx<6-8[8:1]/4bx>3-1[8:1],
5bx/4bx,{24}1x,2,3,7,6,5,2,3,4,8x,7,6,1,2,3,7,6,5,
2x,3,4,1,2,3,7,6,5,8x,7,6,{8}5/1,7/3>8[8:1],{24},,,3b/7b,6,5,
{4}4pp7[8:3],8>3[8:1],8x,{16}1,8,{8}7/2b-6[8:1],
,8,{4}7b-3[8:1],{8}1b-4[8:1]*-6[8:1],2,{4}1b,
{8}2x/8x,{16}4,4,{8}5/3,7/1,{16}2x/8xh,7,6/3,5,4xh,3,2/6,1,
{8}8x/7x,{16}5,5,{8}4/6,8/2,{16}7x/1xh,2,3/6,4,5xh,6,7/3,8,
{8}1x/2x-5[8:1],{16}3,4,{8}2,6,8x/7x-4[8:1],{16}6,5,{8}7,3,
{16}2,2,8,8,1,1,7,7,3,3,6,6,{4}5bx<6-8b[8:1]/4bx>3-1b[8:1],
5bx/4bx,{24}8,7,6,2,3,4,7x,6,5,1,2,3,8,7,6,2,3,4,
7x,6,5,8,7,6,2,3,4,1,2,3,{8}4x/8x,2/6<1[8:1],{24},,,2b/6b,3,4,
{4}5h[4:1],{16}8,8,7,7,6,6,5,5,4,4,2,2,
8,8,6,6,{8}4b-8b[8:1],3,4b/6b-2b[8:1],7,{4}4b/6b,
{8}4x/3xh[4:1],4,5,{16}2x/5x,1,8/6,7,6,5,{8}4x/7x,7/4,
5x/6xh[4:1],5,4,{16}7x/4x,8,1/3,2,3,4,{8}5x/2x,2/5,
8x/7xh[4:1],8,1,{16}6x/1x,5,4/2,3,2,1,{8}8x/3x,3/8,
{16}6,6,5,5,{8}6/4,{16}3,3,4,4,{8}5/3,4b/6b,2b/8b,
{1}7b/3b,
{4}6/2,3h[4:1],4h[4:1],5h[4:1],
6h[4:1],7h[4:1],{2}8xqq6qq4qq2qq8b[4:7],
1xh[4:1],2xh[4:1],
3xh[4:1],4x>5<4b[1:2]*q5b[1:1],
,,{1}Ch[4:3],
{2}4h[4:1]/6h[8:3],{8}3/7,6,5,4,
{2}5h[4:1]/3h[8:3],{4}6/2,5/3,
{8}1h[4:1]/7<4[8:1],,,1,8h[4:1]/2>5[8:1],,,8,
1h[4:1]/7<4[8:1],,,1,{4}2/8,7/3,
{2}2h[8:3]/5h[4:1],{8}6/3,4,5,6,
{4}7h[8:1]/1h[8:1],2h[8:1]/8h[8:1],5h[8:1]/3h[8:1],4h[8:1]/6h[8:1],
{8}2b/7b,{16}1/8,2/7,6/3,4/5,6/3,7/2,{4}1b-5[8:1]/8b-4[8:1],1b>4[8:1]/8b<5[8:1],
8b/1b,{16}1,1,8,8,{2}2bx>3-5b[8:1]/7bx<6-4b[8:1],
{8}8/1,{16}3,4,{8}2,1/7,3/5,{16}6,5,{8}7,8/2,
6/4,{16}3,3,{8}5,1/7,3/5,{16}6,6,{8}4,8/2,
{16}7/3,6,5,4,3,2,1,8,7/3,4,5,6,7,8,1,2,
3/6,5,4,3,2,1,8,7,6/2,3,4,5,6,7,8,1,
{8}2/6,{16}3,3,{8}4,1/2,8/3,{16}6,6,{8}5,7/8,
6/1,{16}4,5,{8}6/3,8/1,4b/3b,6b/5b,7b/8b,1b/2b,
5/3,{16}7,7,{8}7,6/4,5/3,{16}2,2,{8}2,3/8,
1/6,{16}7,7,{8}7,6/1,8/3,{16}2,2,{8}2,3/8,
C,,,B7,B6,,,B2,
B3,,,E1,C,,,4,
6/3,5,4,3,6/2,5,4,3,
E7,E6,E4,E3,{2}Ch[2:5],
{1},,{4},,,{8},C,
E
