&title=愛して 愛して 愛して
&artist=初音未来
&first=0
&des=天行梦初
&lv_5=13+
&inote_5=(230)
{1},,,,
{8},4,,,,,,4,
{8},,,,,4,,4,
{8},4,,4b,,,,,
{4},3/6,2,1,
{4}3/6,7,8,2/6,
{8}1,,8,,3/6,2h,,7h,
{16},,2h,3,4,5,6,7,8,1,2,3,4,5,2/6,1,
{16}8,7,6,5,4,3,2,1,8,7,6,,3,,,,
{8}8,8,2,,6,,1,1,
{8}7,4>1[4:3],,,,,,1q5[4:3],
{8},,,,,5<8[4:3],,,
{8},,,8p4[4:3],,,,,
{8},4>1[4:3],,3,,2,,1<6[4:3],
{8},8,,7,,6>3[4:3],,5,
{8},4,,3,,,,,
{12},,3,4,3,4,3,4,3,4,3,5x,
{12}2x,5x,2x,6x,1x,6x,1x,7x,8x,7,8,7,
{12}8,8x,8x,8x,8b,,,,,,,,
{8},5<5pp5qq5pp5qq5[8:39],,,,,,,
{1},,,,
{24},,,,,,,E8,,E1,,,,,,C,,,,,,E5,,,
{8},2,,8,,8w4[4:1],,1/8,
{4},,5,3,
{8}6,,1/8,2/7,2,,2/6,1/7,
{8},3/6,,2/7,,1-4[4:1]/8-5[4:1],,1b/8b,
{8},,,,,1/8,,2/7,
{8},3/6,,4b/5b,5,5,4,5,
{8}4,E4/A5,,E3/D6,,E2/A6,,E1/D7,
{8},E8/A7,,E7/D8,,E6/A8,,E5,
{8},B4,,B3,,B2,,B1,
{8},B8,,B7,,B6,,B5,
{8},E4,,E3,,Chf[8:3],,,
{8},,,Ch[8:3],,,,,
{8},2/6,,1/7,,7/8w4[4:1],,7/8,
{8},,,,,4/6,,3/7,
{8},2-5[4:1]/8-5[4:1],,8/2,,,,,
{12},,3,4,3,4,3,5,4,5,4,5,
{12}4,6,5,6,5,6,5x,7x,8x,6x,1x,7x,
{12}2x,1x,3x,1x,2b,,,,,,,,
{8},3/5,,,,,,4/6,
{8},,,,,,,3/6,
{8}4,5,6,7,8,1,2,3,
{8}4,5,A7/B7/E7/E8,,,,,,
{8}A3/B3/E3/E4,,,,,C,,D2,
{8}A1,D1,A8,D8,A7,D7,A6,D6,
{8}A5,6,,6,8,,8,1,
{8},1,3,,3,5h[1:1],,4x,
{8}3x,2x,1x,8x,7x,6x,,,
{12},3/6,,,,,,,,4,5,
{12},,,,,,,,2/6,,,,,
{12}3,5,,,4/7,,,,2,4,3,5,
{12}4,6,,,3/6,,,4/7,,3/6,3/6,,
{12},4,,5/6,6/7,,2,1,3,7,8,6,
{12}3,5,4,1,2b,,8w4[4:1],,7,1,7/8,,
{8},3/5b,6,7,8,1,,2/6,
{24},,,,3,,4,,3,,4,,3,,4,,,,3/7,,,2,,,
{24}1,,,2,,,3,,,4/7,5,,6,,5,,5,,6,,5,,,,
{8},4/5,,3/6,,2/7,,1/8,
{8},3/6,,3/6,,7h[8:3]/8h[8:3],,,
{24},,,7b/8b,E1/E7,B1/B6,B2/B5,,,1h[8:3]/2h[8:3],,,,,,,,,,,,1b/2b,E1/E3,B3/B8,
{8}B4/B7,1/7,,2/8,3,4,5,6/1,
{24}8,,7,,8,,7,,8,,7,,,,,3/7,,,8,,,1,,,
{24}8,,,7,,,,,,2/6,,,,,3,,4,,3,,3h[12:1:1],,,,
{8}4,3/5,,7,,1,,1b/8b,
{8},,,1/7,,2/8,3,4,
{8}5,6,,8b,,2b,,3b,
{8},7b/5b,,5/3,,6/5w1[4:1],,4b/5b,
{8},,,,,2b/4b,,4/6,
{8},3/4w8[4:1],,4b/5b,,,,,
{8},6/8,,1/7,,2/8,,1bh[4:1]/7bh[4:1],
{8},,1/7,,,2/7,,3qq1[8:1]/8p4[8:1],
{8},3b/8b,,2/7,,1q5[8:1]/6pp8[8:1],,1b/6b,
{16},,3/7,4,5,,6,7,8,1,2,3,4,5,6/1,8,
{16}7,6,5,4,3,2,1,8,7,6,5/2,3,4,5,6,7,
{16}8,1,2,3,4,5,6/2,1,8,7,6,5,4,3,2,1,
{12},8bx<5[2:1],,,,,,5bxp8[2:1],,,,,
{12},8bxp4[2:1],,,,,,4bx>1[2:1],,,,,
{12},1bxp4[2:1],,,,,,,4bx,,,,
{24},,,1,2,3,4,5,6,7,8,1,2,3,4,5,6,7,8,D1,D2,D3,D4,D5,
{24}D6,D7,D8,A1,A2,A3,A4,A5,A6,A7,A8,D1,D2,D3,D4,D5,D6,D7,D8,A1,A2,A3,A4,A5,
{24}A6,A7,A8,A1,A2,A3,A4,E5,B6,B7,E1,B1,E3,A3,A4,A5,A6,E7,B8,B2,B3,E5,A5,A6,
{24}A7,A8,E1,E3,B4,B5,E7,A7,A8,A1,A2,A3,B4,A5,B6,A7,B8,A1,B2,E4,E5,E6,E7,E8,
{24}E1,E2,E3,A4,B5,A6,B7,A8,B1,A2,B3,E5,E6,E7,E8,E1,D2,D3,D4,D5,D6,E7,E8,E1,
{24}E2,E3,D4,E5,D6,D7,D8,E1,E2,E3,E4,E5,E6,E7,D8,D1,D2,E3,E4,,,,,,
{24},,,1x,2x,3x,4x,5x,6x,7x,8x,1x,2x,3x,4x,5x,6x,7x,8x,1bx,2x,3x,4bx,5x,
{24}6x,7bx,8x,1x,2bx,3x,4x,5bx,6x,7x,8bx,1x,2x,3bx,4x,5x,6bx,7x,8x,1bx,2x,3x,4bx,5x,
{24}}6x,7bx,8x,1x,2bx,3x,4x,5bx,6x,7x,8bx,1x,2x,3bx,4x,5x,6bx,7x,8x,1bx,2x,3x,4x,5bx,
{24}6x,7x,8x,1x,2bx,3x,4x,5x,6bx,7x,8x,1x,2x,3bx,4x,5x,6x,7bx,8x,1x,2x,3x,4bx,5x,
{24}6x,7x,8bx,1bx,2x,3x,4x,5bx,6x,7x,8x,1x,2bx,3x,4x,5x,6bx,7x,8x,1x,2x,3bx,4x,5x,
{24}6x,7bx,8x,1x,2x,3x,4bx,5x,6x,7x,8bx,,,,,,,,,,,,,,
{12},,7bh[8:3]/1bh[8:3],,,,,,7/8,,,4b,
{12}6,4,3x,2,1x,,,,2bh[8:3]/8bh[8:3],,,,
{12},,2/1,3b/8b,2,1,8,7,6,7,8,1,
{12},1bh[8:3]/7bh[8:3],,,,,,,1/7,,,2b,
{12}6,2,3,4,5,6,,,2bh[8:3]/8bh[8:3],,,,
{12},,2/8,,7,8,1,2,3,4,5,6,
{8},3/7,,2,,1,,3/7,
{8},6,,5,,8/4,,1,
{8},2,,4/8,,5,,6,
{12},3,,,4,,,2,,,1,,
{12},3,,,8,,,2,,,7,,
{12},,,,4b,,,6,,,3,7,
{8},1,1,1,1,1,1,1x,
{8}1x,1x,1x,1x,1x,1x,1x,1x,
{8}1x,1x,1x,1x,1x,1x,1x,1,
{12},1/7,,,3/4,,,3/4,,,5,6,
{12},,4,7,3,6,2,5x,,,3,7,
{12}2,1/8,1b/8b,,7,5,6,4,3,5,1,2b,
{8},7/8,,5/6,,3/4,,1bh[4:1]/2b,
{8},,2`1,,,1/2,,3/4,
{8},5/6,,8bh[4:1]/7b,,,7`8,,
{8},6/7,,1/8,,2/3,,4,
{8}5,,,4,6,3h[8:1],,E2/E8,
{8},E3/E7,3,6,,2,7,1-5[8:1],
{8}8,1,
