&title=九皋
&artist=かたぎり
&first=4.48
&des=Roesi&江予凌&angrer&catcats&soul fox
&des_5=
&lv_5=14+
&inote_5=(216){1}8<8[1:2],C,
8<8[1:2],
C,
8<5[8:5]*-5[8:5],
8-3[8:5]*>3[8:5],
{4}6h[4:3],4,4,4,
3h[2:1],5,5,C,
{2}8h[2:1],1h[2:1],
{4},,{8}7,2,7,2,
{2}6h[2:1],3h[2:1],
{8}B8,B1,B7,B2,B6,B3,B5,B4,
{2}6h[2:1],3h[2:1],
{4},,{8}7,2,7,2,
8/1,{4},{8}8/1,{2}7/2,
{8}B4,B5,B3,B6,B2,B7,B1,B8,
{4}1bx-3-5-7[1:1],{2},{4}8,
{1}7b-1-5[1:1],
{8}5b-3-8[1:1],{4},{8}6,{4},7,
{1}8bw4[2:1],
{8}8b<3[1:1],{4},{8}1,{4},2,
{8}3bq8[8:5],{4},{8}2,{4},1,
{8}B1,B8,B2,B7,{4},{8}B5,B4,
B6,B3,,{16}1,8,{8}1,7/2,{4}1,
2/1,2/8,2/7,2/6,
5/3,5/4,6/4,{8}6/4,6/4,
{4}6x/4x,6/3,7/2,{8}8x/1x,8x/1x,
{4}7/2,{8}7/2,8/1,{4}7b/2b,Cf,
{16}2,4,2,4,2,4,2,4,{2}1-3[8:1]*-4[8:1],
{16}7,5,7,5,7,5,7,5,{2}8-5[8:1]*-6[8:1],
{8}1,1,8,8,{32}1,2,3,4,5,6,7,8,1,2,3,4,5,6,7,8,
{4}1-5[8:1],7-3[8:1],2v5[8:1],Cf,
7b,{16}1,2,3,4,{4}5-1[8:1],{8}7-3[8:1],7,
2-5[8:1],2,8-4[8:1],8,{4}3h[4:1],{16}5,6,7,8,
{4}1/2h[8:3],{16}8,7,6,5,{4}4-8[8:1],{8}2-5[8:1],2,
7-3[8:1],7,4-1[8:1],4,,,,,{4}2/8,
{16}1b/7b,2,3,4,{4}5v2[8:1],5b/7,
1/7,{16}2b/8b,3,4,5,{4}6-2[8:1],6b/1,
7-3[8:1]/1-5[8:1],1b/7b,8-4[8:1]/2-6[8:1],8b/2b,
{16}1x/5x,,,2/6,,,3V17[16:3]/7V53[16:3],,{2}3b/7b,
{4}2b/6b,{16}1,2,3,4,5-1[8:1],,,5x,{8}7xp3[8:1],8,
{4}7b,{8}2b-6b[8:1],1,{16}2b,Cf,,,,,,,{4}7b/2b,
{16}8,7,6,5,{8}4v7[8:1],2,4,1,
{16}8x,8x,8x,8x,{8}B1/B8,B5/E6,B2/B3,B7/B6,{4}E4/B4,
2b/7b,{16}8,7,6,5,4-8[8:1],,,4x,{8}2xq6[8:1],1,
{4}2b,{8}7b-3b[8:1],8,{16}7b,,,1,,,1b-4b[8:1],,,1b/5-8[8:1],,,5b/3-6b[8:1],,,3b/7,,,8bw4[8:1],,,8b,,,1bw5[8:1],{16},,1b/B1,Cf,{8}B6/B5/B4,,,,,{16},
(216){8}2/8xV24p8[4:3],7/1,6/8,{4}5h[4:1],
{8},8p4b[4:1],7,6,{16}5,,,,B4,B3,E3,
,B8,,B7,,B6,,{8}4xV68p4[4:3],3,2,{4}1h[4:1],
{8},4p8b[4:1],3,2,{16}1,,,,B8,B7,E7,
,B2,,B3,,B4,,{8}6/2,3,6/4,5v2>4[8:3],6,
,6,7,8,1,2,{16}B3,B4,{8}E5,
E6,E7,E8,3x/7x,6,3/5,4v7<5[8:3],3,
,3,2,1,8,7,{16}B6,B5,{8}E5,
E4,E3,E2,7p3b[4:1],8,3<7[4:1],{4}2h[4:1],
{8},3,4v1b[16:3],5v8[16:1],{4}4,{16}7x/2x,6/3,{8}5/4,
3h[8:1],7h[8:1],2h[8:1],8bh[4:1],{16},,E3,B3,{8}B4,6bh[4:1],
{16},,E1,B1,{8}B2,7bh[4:1],,5-1[8:1],,,
{16},8/2,7/3,6b/4b,,,{8}5/E4,,5/E3,,5/E2,
,5/E1,,1/E6,,2/E7,,3/E8,
,4/E1,{16},,2b,1,3,8,2,1,2,1,{32}2b,3,
4,5,6,7,8,1,2,3,4,5,6,7,8,1,(216){8}2/Ch[4:3],
,,,,,,,2-5[8:1],
{16},1,{8}2,7,{16}4,6,3,5,2,4,,,{8}7-4[8:1],
{16},8,{8}7,2,{16}5,3,6,4,7,5,,,{8}1hx[1000:1]/2x-5[8:1],
{16},1,2,,,6,{8}8hx[1000:1]/7x-4[8:1],{16},8,7,,,3,{8}5hx[1000:1]/6x-1[8:1],
{16},5,6,,,2,8b/3b,,,,,,,,{8}7-4[8:1],
7,1>4[8:1],1,{16}6b,7,8,1,2,3,,,{8}2-5[8:1],
2,8<5[8:1],8,{16}3b,2,1,8,7,6,,,{8}7-2[8:1],
7,7/5-8[8:1],5,5/3-6[8:1],3,3/1,8,{16}1,8,
7,6,3,2,1,8,5,4,3,2,1,8,7V53[8:3],1,{8}7hx[8:1],
,1,,8,,8/1V75[2:1],,1/3,
,2,,1,,1/6,,6h[8:1],
{16},,1/6h[8:1],2,{8}3,7h[8:1],{16},,2/7h[8:1],3,{8}4,8h[8:1],
{16},,3/8h[8:1],4,{8}5,8h[8:1],{16},,3b/8b,4,5,6,{8}8/7s3b[4:1],
,8h[8:1],,8,{16},,8h[8:1],,4,3,{8}2-4b[8:1]/8,
,7h[8:1],,7/5-1b[8:1],,7h[8:1],,7,
7,7,7,6/B2,6,6/B4,,2,
2,2,2,{16}8,7,6,5,(432)4b,3,2,1,8,7,
6,5,{8}4b<4[0.2083##2.6389],(216){4},{1},{4},,{16}E6,
E5,{8}E4,,,,,,,,{4}4-8[4:1],{8},,
,{16},,,7b/1b,,,,
{8}8/6,8/6,7/5,7/5,6/4,6/4,
5/3,5/3,{16}2,1,2,1,2,1,2,1,(432)2,3,4,5,
1,8,7,6,1x,2,3,4,8x,7,6,5,(216){4}Ch[8:13],
,,,,,{8},B6/B5/B4/B3,
,,
(81){8}8/1>6[24:19],
7/2,{32}8,8,8,8,7,7,7,7,{16}6,6,{32}6/A2,D2,A1,E1,7/B8,C,{16}6/A2/E3/D3/A3,{32},7/A4/B4/D4/D5,{16},{8}A6/E6/D6/A5/8<5[16:9],
2/7,{32}1,1,1,1,2,2,2,2,A3,D4,A4,E5,B5,C,{16}2/7,{256}1/8,E8,2,E7,3,E6,{128}4,{16},,,{64},,{8}1/8<3[24:19],
2/7,{32}1,1,1,1,2,2,2,2,{16}3,3,{32}4/A7,D8,A8,E1,3/B1,C,{16}2/A7/E7/D7/A6,{32},1/A5/B5/D6/D5,{16},{8}A3/E4/D4/A4/2s6[16:9],
7/1,{32}8,8,8,8,7,7,7,7,A5/2-6b[24:1],E5,B4,B3,B2,B1,,C,{4}2b,
{32}A8,A1,A2,A3,4>1[16:1],5,6,7,{8}8,{16}4/6<1[16:1],{32}5,5,{8}5h[16:1],{16}6/4>1[16:1],{32}3,3,{8}5h[16:1],4/5<8[16:1],
8/6,{48}5/2v5[16:1],3,4,5,{96},{32}6,{8}7,{16}2/8<5[16:1],{32}7,7,{8}4h[16:1],{16}8/3v8[16:1],{32}2,2,{16}4h[16:1],2,{8}3,
{32}5/1-5b[16:1],2/6,3/7,4/8,5,6,7,8,{360}1/6,B1/C/B5,{64},,,{2880},{720},{120},{32}7,7,{16}4h[32:1],{32}3,3,{16}2h[32:3],{32}5,5,3,6,6,4,{16}7h[6:1],5h[16:1],{48},6,,8,1,2,
{8}3-7[16:1],2/6,{16}3,{32}5,5,{16}8h[16:1],4,6/2-6[16:1],1-5[16:1],4/8-4[16:1],7-3[16:1],2b,1b,8b,7b,
{8}2>5[8:1],5-1[8:1],{16}2/7,8,{24}1,8,7,{16}6h[16:1],{32}2,5/1h[16:1],,5,{16}4h[24:1]/8h[24:1],{48}5/1q5[16:1],2/6,{24}3/7h[12:1],,{48}3,4,5,6,7,8,
{16}6/1,{32}7,8V64[32:3],{16}1,{32}4-8[32:3],3,{16}2,{32}1,8/1,,3,{16}3,{32}5-1b[32:3],5,,5qq3[32:3]*pp7[32:3],7,4,6,3,{4}5,
{8}8<5[8:1],5-1[8:1],{16}8/3,2,{24}1,2,3,{16}4h[16:1],{32}8,5/1h[16:1],,5,{16}4h[24:1]/8h[24:1],{48}3/7p3[16:1],6/2,{24}5/1h[96:11],,{48}5,4,3,2,1,8,
{16}3/7,{32}2,1-5[32:3],{16}8,{32}5-3-1[32:3],6,{16}7,{32}8,8/1,,7,{16}7,{32}6-2b[16:1],6,,8x,8xw4[16:1],8x,6x,6x,{4}6x,
{8}2-6[32:3],4/8-4[32:3],{16}2/6,7,{24}8,5,3,{16}2h[16:1],{32}3,8/4h[16:1],,8,{16}1h[24:1]/5h[24:1],{48}6/2q6[16:1],3/7,{24}4/8h[12:1],,{48}4,5,6,7,8,1,
{16}7/2,{32}8,5,{48}7,4,6,3,{96},{32}5,{16}2>5[24:1],{32}2/5,6/1q5[96:5],,5/7,{16}4/8v5[24:1],{32}2b,{16},{32}1b,{16},8b,{32},6b-2b[32:3],{16},{8}2b-6[8:1],
6,3,{16}4,{32}3,3,{16}7h[32:1],{32}5,5,{16}6h[32:3],{32}4,4,5,3,3,4,{16}2h[6:1],4h[16:1],{48},3,,1,8,7,
{16}6/3,{32}2,4,{16}3<6[8:1],{32}7,5,{16}6-2[32:3],{32}2,5,{8}3,(162){8}8w4b[16:6],(81){16}8,{4},{24}2,7,1,
(216){16}8,
7,6,5,1,2,3,4,8,7,6,5,{4}1>4[8:1],{24}1/5b-1[8:1],6,7,8,,,{4}5/7-4[8:1],
7/8b,{8}5bq1[8:1],5,2,{16}2h[8:1],,
{16}8,7,6,5,1,2,3,4,7,6,5,4,
{8}1>5[4:1],1,5<1[4:1],5,1>5[4:1],1,{4}Cf,
{8}7h[8:1],1h[8:1],{16}8,2,8,2,{8}8h[8:1],{16}1,7h[8:1],,8,{8}6,
8b/2b>5[8:1],1,2/8-4[8:1],7,8/1-5[8:1],2,{4}1/7b,
{8}2h[8:1],8h[8:1],{16}1,7,1,7,{8}1h[8:1],{16}8,2h[8:1],,1,{8}3,
{24}8bx,7,6x,1bx,2,3x,7bx,6,5x,2bx,3,4x,{16}E7,{8},{16}C,{8},E3,
{2}Cfh[2:7],B8,
{6}B1,,B7,,B2,,
{4}E7/E3,{2},{4},
{1}B8/B1,
{16}8,1,7,2,8,1,7,2,8,7,6,5,1,2,3,4,
{8}7/5,6,4/2,3,5/4,5,5/4,4,
{16}8,1,7,2,8,1,7,2,8,7,6,5,1,2,3,4,
8bx/5bx,{8},{16}7b/4b,{8},6b/3b,{16},5b/2b,{8},8bx/1bx,7bx/2bx,
{1}Ch[4:3],
{8},7/2,6/3,5/4,{2}C,
{4}7/8,7/1,7/2,7/3,
4/6,4/5,3/5,{8}3/5,3/5,
{4}3x/5x,3/6,2/7,{8}8x/1x,8x/1x,
{4}7/2,{8}7/2,8/1,{4}7b/2b,Cf,
{16}7,8,7,8,7-5[8:1],8,7,8-4[8:1],{8}7-3[16:3],8,7,,
{16}2,1,2,1,2-5[16:3],1-6[8:1],2,1,{2}2,
{8}1,1,8,8,{32}2,3,4,5,6,7,8,1,2,3,4,5,6,7,8,1,
{4}2>5[8:1],8<5[8:1],1w5b[8:1],Cf,
{4}8b,{16}1,2,3/7b,,,,8,1,2/6b,,,,
{8}8V64[8:1]/7V53[8:1],3V17[8:1]/4V28[8:1],{4},,,{16}1b,,,8,{16}7,6,5b/2b,,,7,6,5,{4}3b/4bx,
{16}5b/2b,{8},{16}6b/1b,{8},7b/8b,{2}Cf,
{8}8-4[8:1],1,8,2>5[8:1],1,2,8<5[8:1],1,
8b,{16}4,3,2,1,8,7,6,5,4,3,2,1,{8},2x/6x,
2/6,3/7,3/7,4/8,4/8,5/1,5/1,
{16}8bx/2bx,{8},{16}7b/3b,{8},6b/4b,{2}7bx-2-7[0.1389##0.2778]/3bx-6-3[0.1389##0.2778],
{4}1bx,{16}8/2,{8},{16}7,{8}1-5[8:1],1,7<5[8:1],7,
{4}8bx,{16}7/1,{8},{16}6,{8}1-5[8:1],1,8-4b[8:1],8,
2-4[8:1],2,2,8-6[8:1],8,8,B2,B3,
6xh[16:1]/5xh[16:1],6xh[16:1]/5xh[16:1],5h[16:1]/4h[16:1],5h[16:1]/4h[16:1],{32}B5/B4,{16},,,{32}C,{16},,{32},8/1,{16},{4}2bx/7bx,
{16}1/7,{8},{16}2,{8}8-4[8:1],8,2>4[8:1],2,
{4}1bx,{16}2/8,{8},{16}3,{8}8-4[8:1],8,1-5b[8:1],1,
8,8,8,8,1,1,1,1,
{32}8,7,6,5,4,3,2,1,8,7,6,5,4,3,2,1,8,7,6,5h[32:5],{8},Cf,,
5/4,5/4,{16}6bx,4,6,4,6,4,6b,3,6,3,6,3,
6b,2,6,2,6,2,6b,1,6,1,6,1,{4}Cf,
{8}4/6h[4:1],4,4,4/7h[4:1],4,4,4/8h[8:1],4,
{4}8-4[8:1]/4-8[8:1],C,{32}7bx/3bx,{16},,,{32}6bx/2bx,{16},,{32},5bx/1bx,{16},{8}B5/B4,
C,6/1,{16}7,8,{8}7,6/1,{16}7,8,{8}7,
6/1,{16}7,8,{8}7,6/1,{16}1,2,3,4,7,6,5,4,
{8}1,1,1,1,8,8,8,8,
B1,B8,B2,B7,B3,B6,B4,B5,
{4}8/2,1/7-4[8:1],{16}2-6[0.2083##0.1389],{8},{16}8-4[0.2431##0.1389],,,{32},1-6[0.1736##0.1736],{16},,5-1[0.2431##0.1389],
,,{32},3-5[0.1736##0.1389],{16},,8-4[0.1389##0.1736],{4},1bx,
{8}6/5,7,6/4,8,5/3,1,4/3,2,
8bqq5[0.1389##0.5556],4,3,2,1b,1b,{4},{8}7/5,
6/4,{16}5,5,{8}5,{16}6bx/4bx,{8},{16}5bx/3bx,{8},4bx/2bx,
{16}1,1,{8}1,8/2,7/1,6bx/3bx,6bx/3bx,{4}6bx/3bx,
{8}8-4[8:1],8,2-6[8:1],2,7-5[8:1],7,1-5[8:1],1,7h[4:3],,,,1,,
{4}8w4b[8:1],
{1}8b<8[4:5],
{4},,,{8}7V53[1:1],8,
{4}7,{2},{4}3v8[2:1],
{2},{4}2h[2:1],{16}7,6,5,4V61[16:13],
{4},,,1z5[1:1],
,,,{16}5<8[1:1],4,3,2,
{4},,,8-5[8:7],
{1}4-1[8:5],
{2}6b/2h[2:1],3h[2:1],
{4}4h[1:1],,,{8}8,7,
{4}6h[4:3],,,{8}3,2h[4:3],
{4},,{8},4h[8:1],3h[8:1],5h[8:1],
{1}4h[1:1],
{8}7h[8:3],{4},{8}8h[8:3],{4},1h[4:1],
2h[4:3],,,{8}3,4h[4:3],
{4},,{8},1,5,8,
{2}6h[2:1],7<4[4:3],
{1}E8/B7,
{4}2,2>5[1:1],{2},{1}E2/B2,
{4}6,6<1[1:1],{2},{1}B6/E6,
{4}3,3>8[2:1],{2},{1}4bw8[4:1],
{8}1/6,1/6,{16}E7,B7,
B8,B1,{8}B3,B6,B2,{4}B7,{8}E2,C,
E6,{16}B1,B2,{8}B3,B7,B4,8x/3x,8x/3x,{16}E3,B2,
B1,B8,{8}B6,B3,B7,{4}B2,{8}E8,C,
E4,{24}E1,B8,B7,{16}E7,B6,B5,E3,B2,B1,{8}8x/7x,8x/7x,{16}B7,B6,
B5,E5,{8}E4,E8,B3,B8,1x/2x,1x/2x,B8,
B7,{16}B2,B3,{8}E7,B6,B5,6x/4x,6x/4x,{16}7,3,
7,3,{8}6/2,6/2,{16}5,3,5,3,{8}6/4,6/4,{16}5,3,
{8}6/2,7,8/3,,,{4}8/3-1v8-6[4:3],7
,6,3,2-4v5-7[4:3],5
,6,{8}2,2,3<8[2:1],,8,
,7,,5,5,7/2,{16},7/2,{8},6/3,
{16}4,5,4,5,{8}1b,,3/6,6,6/2,
{16}7,1,{8}8/2,{4}7/3,{8},6/3,3,3/7,
{16}2,8,{8}1/7,2/6,{16}5,3,5,3,6/2,7,8,7,8,7,
8,7,{32}1,2,3,4,{8},6,7/2,1s5[8:1]/8z4[8:1],,,,6,
3,7,2,6/3,{16}4,5,{8}2>5[8:1],
1,8/2,8,7<4[8:1],8,7/1,2,3,
{16}4,3,{8}2/5,6-3[8:1],2,6,2,{16}7,1,6/2-7[8:1],3,
{8}5,2,6,3/5,4,8<5[8:1],{16}5,5,{8}8>3[8:1],
{16}3,3,{8}8-4[8:1],{16}4,4,{8}8,,2,{16}5,3,{8}6/1-5[8:1],
7-3[8:1],1x-3[8:1],7x-5[8:1],1xv4[8:1],7x,1x,,5,
{16}3,4,{8}2,{16}6,5,{8}7,{16}4,5,{8}3,5<6-8[8:1],1>2-4[8:1],
5x,1x-5[8:1],,1x,,E2f/B1/B2,{4}B8/E8f/B7,
6/3,{16}5,4,{8}5,3/6,{16}5,4,{8}7<4[8:1],8,
1/7,1,2>5[8:1],1,2/8,7,6,{16}5,6,
{8}7/4,3-6b[8:1],6,3x,,8/1,,E5/A5/A4/D5f,
,7/8,,D4f/A4/A3/E4,,1/2,,E6/A6/A5/D6f,
,5/4,,E1f/B8/B7f/B1/B2f/E3/E7,,6h[8:1]/3h[8:1],,6h[8:1]/3h[8:1],
,4h[8:1]/B7,,4h[8:1]/B7,,5h[8:1]/B2,,5h[8:1]/B2,
,6h[8:1]/3h[8:1],,{16}4,5,{8}4,7/3,5,7/3,
5,6/2,4,6/2,4,1,2,{24}8,7,6,
{8}5<3[4:3],4h[8:3],,,,6h[2:1],{16},,,,,,,7,
8,1,2,1,8,7h[16:3],4,3,{8}2,6/1,
8,2/7,3,7/4,2,{16}8/4,7,6,5,4/8,3,
2,1,{8}8/4,3,7/2,6,5/3,2,1-6[8:1],
,1-4[8:1],,1<3[8:3],,1/Cf,,,,5/2,
1,6/3,7,8/4,3,7/2,
1,7-4[8:1],{16}6,8,{8}7b,,2-5[8:1],{16}3,1,{8}2b,
,6/4,7,5/3,2-6-8-4[8:5],B7,,B1,
,B5f,,{16}6h[8:1],3,2,1,{8}7bx/8b-5b[8:1],,1bx/8b-3b[8:1],
,7bx/8b-6b[8:1],,1bx/8b-2b[8:1],,5bx/8b<5b[8:1],,3bx/8b>3b[8:1],
,8b/7bx,,8bxw4b[8:1],7bx/1bx,8b,,6b-1b[8:1]/2bx-5b[8:1],
,6bx-3b[8:1]/2b-7b[8:1],,2bx/6b,,5bx/1b,,8b-4b[8:1]/1bx-5b[8:1],
7bx/2b,8bx/1b,,{16}6,3,6,3,{8}7/2,,8/4,
,2-6[8:1],{16}3,5,{8}2,7,8-4[8:1],2,8,
3,1-5[8:1],{16}2,8,{8}1,7,8/4,4/8,7/3,
7/3,6/2,6/2,5/1,5/1,{24}4/8,5/1,6/2,{8}7/3,B3,
B7,6,1-5[8:1],7>6[8:15]*-3[8:1],1,{1}7/Cf,
,{4}1-4[4:1],4-7[4:1],7-2[4:1],2-5[4:1],{16}5,,,6,,,7,,
{24}1,8,1,8,1,8,
{8}1b,,7-2[8:1],3-6[8:1],7-4[8:1],3-8[8:1],7,3,,,1/6,8/3,
{8}7/4,2/5,3/6,1/8,,,
2-4[8:1],2,1-5[8:1],1,8-4[8:1],8,7-5[8:1],7,
{16}1-5[8:1],,,,1<6[8:1]*>4[8:1],,,,1w5[8:1],,,,
{8}1b,,2-6[8:1],2,,2/8,1-5[8:1],,1/7,8-4[8:1],,8/6,7-3[8:1],,2h[8:1],,,,
{12}1b/5b,1b/5b,1b/5b,2b/6b,2b/6b,2b/6b,1b>4[8:1]/5b<8[8:1],,,
{8}1/5,,5,1,5,,3/7,2/6,3-6b[8:1]/7-2b[8:1],,3b/7b,,
8/4,,{16}3,2,,2,,,
,7,1-4[8:1],,7,,1,,6-8[8:1],,5,,6,,1,,,,1/8,,,,8/6,,1/3,
{16},2/7,,{16}1b,,,8b,,,4bs8[8:1]*z8[8:1],,,,4,,,,{4},2xh[8:1]/7xh[8:1],
1s5b[8:1]/8bz4[8:1],1/8,{8}1b/8b,2b/7b,3b/6b,{16}2b,5b,
3b,7b,{8}1b/8b,1b/8b,2b/7b,{16}1/6,8,7,6,5-1[8:1]/7-3[8:1],4/8,{8}3/1,
{4},{12}2x,2x,2x,4,4,4,5bx,5bx,5bx,
7,7,7,6b-2[8:1]/8b>2[8:1],8b/6b,8b/6b,{4}8bx-4[8:1]/6bx>4[8:1],8b/6b,
{8}2x/6x,6/2,5/1,4/8,4x/8xq4[8:1],{16}1,5,{8}8p4[8:1],7,
1x/8x,2,3-7[8:1],{16}5,4,{8}2bx/3bx,{24}1,2,3,{8}4,{24}8/5,7/4,6/3,
{16}5x/2x>5[8:1],1,4,8,5h[32:1],6h[32:1],7h[32:1],8h[32:1],{32}1h[64:1],2h[64:1],3h[64:1],4h[64:1],1h[64:1],8h[64:1],7h[64:1],6h[64:1],{16}5h[8:1],8,{48}1,2,3,4,5,6,
{8}2bx/7bh[8:1],{32}1,2,3,4,{8}5/6,8/3,{32}1bx/2bh[16:1],8,7,6,{8}5/3,{32}8bx/7bh[16:1],1,2,3,{8}4/6,
{48}1b/8b,2b/7b,3bh/6bh,4bh[16:9]/5bh[16:9],{4},,,{16},,{24},{2}3/6h[2:1],
{4}5h[4:1],4h[4:1],
3h[1:2],,,{8}6,7h[8:9],
{1},{4},,{8},4,
5,3,
{2}6h[1:1],{16}B4,{8},{16}B3,{8},B2,
{4}Ch[1:1],,,{8}B6,B5,
{1},{8}6,
5,4,3-6[8:27],
