&title=Désive
&artist=MisomyL
&first=0
&des=霊風
&lv_5=14+
&inote_5=(185)
{1},
{1},
{1},
{4},6,5,4,
{4}3h[4:3],,,4,
{4}4h[4:3],,,5,
{1}5h[1:1],
{2}6h[2:1],5h[2:1],
{4}6h[4:3],,,5,
{1}5h[1:1],
{1}4h[1:1],
{1}3>6[2:1],
(230)
{8}3h[8:1],5,4,3h[8:1],4,5,3h[8:1],5,
{8}4,3h[8:1],4,5,3h[8:1],5,4,3,
{8}6h[8:1],4,5,6h[8:1],5,4,6h[8:1],4,
{8}5,6h[8:1],5,4,6h[8:1],4,5,6,
{8}3h[8:1],4,5,4h[8:1],5,6,3h[8:1],6,
{8}5,2h[8:1],5,4,3h[8:1],5,4,3,
{8}6h[8:1],5,4,5h[8:1],4,3,6h[8:1],3,
{4}4h[4:1]/5h[4:1],,4-8[8:1]/5-1[8:1],4/5,
{8}2-4[8:1]/7,,8,8-6[8:1],,5,4,3h[4:1],
{8},4,5,6-2[8:1],,2,3,4,
{8}5-3[8:1]/1,,6,6-8[8:1],,1,2,3,
{16}4/7,,6,,2/5,,3,,4,5,4,,6,5,6,,
{8}7-5[8:1]/3,,1,1-3[8:1],,4,5,6h[4:1],
{8},5,4,3-7[8:1],,7,6,5,
{8}4-6[8:1]/8,,3,3-1[8:1],,8,7,6,
{8}5,3/4h[8:1],1,3h[8:1]/5,7-3[8:1],,7,,
{16}2,4,2,4,2,,6,4,6,4,6,,2,4,2,4,
{16}2,,6,4,6,4,6,,3,5,3,5,3,,7,5,
{16}7,5,7,,3,5,3,5,3,,8,5,8-4[8:1],5,8,,
{1}8pp3[4:11]*qq5[4:11],
{1},
{1},
{2},6h[2:1],
{2}4h[2:1],8h[2:1],
{8}2h[8:7],,,,,,1,8h[8:7],
{4},,,2h[4:1],
{8}1h[4:1],,2h[4:1],,1h[8:3],,2,3h[8:7],
{1},
{8}7h[8:7],,,,,,8,1h[8:7],
{4},,,7h[4:1],
{8}8h[4:1],,7h[4:1],,8h[8:3],,7,6h[8:7],
{1},
{8}2h[8:7],,,,,,3,4h[8:9],
{1},
{8}7h[8:7],,,,,,6,5h[8:7],
{4},7,8,1,
{1}2qq6[4:11]/5<4[4:11],
{1},
{1},
{4},,,{128}3h[384:1],6h[384:1],{64},{32},{16},,,
{16}2/5h[8:7],3,4,,,,1,2,3,,,,8,1,2h[8:7],,
{4},,,5,
{16}4h[4:1]/7,6,5,,,,8,7,6/4h[4:1],,,,1,8,7qq6[8:5]/4qq3[8:5],,
{1},
{16}7/4h[8:7],6,5,,,,8,7,6,,,,1,8,7h[8:7],,
{4},,,4,
{16}5h[4:1]/2,3,4,,,,1,2,3/5h[4:1],,,,8,1,2pp3[8:5]/5pp6[8:5],,
{1},
{8}1/4,3-1[8:1],,5,4-8[8:1],,{16}1,,1,2,
{8}3/7,6-8[8:1],,4,5-1[8:1],,8,7,
{8}6/2,5-3[8:1],,3,2-6[8:1],,1,{16}1,8,
{8}7/5,4-6[8:1],,8,7-3[8:1],,7,,
{8}1h[2:1],2,2,,8h[2:1],7,7,,
{8}5h[2:1],6,6,,4h[8:3],3,3,,
{8}2/5,3,4/7,6,3/5,2,1/6,7,
{16}8,2,7,3,6,4,7,8,6,1,5,2,6,3,7,4,
{1}8b,
{1},
{1},
{8},,,,,,7,6,
{8}5qq3[8:3],,,3q8[8:3],,,1h[2:1],,
{8},,4,,5,,6,,
{8}7<3[8:3],,,3-7[8:1],,,2h[1:1],,
{4},,6h[4:1],,
{16}7,8,7,8,6,,2,1,2,1,3,,5,4,5,4,
{8}6,6,1-4[8:1],,7-2[8:1]/1,,7/5,,
{16}4,1,3,1,3,,7,2,6,2,6,,1-5[8:1],5,1,5,
{16}1,,6,7,8,1,2,3,4/5,6,7,8,1,2,3,4,
{16}5,5,5,5,5,,3,3,3,3,3,,7,7,7-3[8:1],7,
{16}7,,,2,,,1,1,1,1,1,,8h[8:1],,2,,
{16}7,1,8,8,8,,2,4,3,3,3,,7,5,6,6,
{16}6,,2,8,1,1,1,,3/7-3[8:1]*-3[8:1],2/6,1/5,4/8,3s7[9.5833#36:1]/7,,,,
{1},
{1},
{1},
{1},
{1},
(165)
{1},
(230)
{2}2,3,
{4}4h[4:3],,,5,
{2}5h[2:1],4h[2:1],
{1}6h[1:1],
{4}5h[2:1],,7,6,
{4}5h[4:3],,,4,
{4}4h[4:3],,,5,
{1}5h[1:1],
{2}2h[2:1],4h[2:1],
{4}3h[1:1],,,2,
{4}1h[1:1],,,8,
{4}7h[1:1],,,6,5h[2:1],,3h[2:1],,
{1}6qq3[4:7],
{4},,2,1,
{2}8b,8-5[8:1]/1-4[8:1],
{2}3V57[8:1]/6V42[8:1],1-6[8:1]/8-3[8:1],
{32}4,5,6,7,8,1,2,3,{8}4h[4:1]/5-8[8:1],,5,3,{16}3,2,1,8,
{16}7,6,5,4,3,2,1,8,6-3[8:1]/7-2[8:1],,,,6/7,,,,
{16}1,,6,5,6,,8,,6,5,6,,1,,6,5,
{16}6,4,5,3,4h[8:1],,2,,1,4,2,5,3,6,4,7,
{16}5,6,7,8,1,2,3,4,5/7,6,5,4,3,2,1,8,
{4}7-4[8:1]/3-8[8:1],3/7,2-5[8:1]/6-1[8:1],2/6,
{16}8,,3,4,3,,2h[8:1],,8-4[8:1],,1,,8,,2,,
{16}3,5,2,4,1h[8:1],,7,,7,8,6,1,5,,3,,
{8}3/4-6[8:1],,2,,3/4-7[8:1],1,1,,
{8}6/5-3[8:1],,7,,6/5-2[8:1],8,8,,
{8}1h[4:1]/7h[4:1],,,{16}2,6,2,6,3,5,4,7,5,6,
{8}5,3/4,2,1/7,6,3/5,2,1/8,
{16}2/7h[8:1],3,4,5,6,7,8,1,2/5,6,7,8,1,2,3,4,
{16}5/8,7,6,5,4,3,2,1,4/8,3,2,1,8,7,6,5,
{16}2,4,2,4,3,,6,8,6,8,7,,4,5,4,5,
{16}3,8,3,8,1,6,1,6,2,3,4,5,{32}8,1,2,3,4,5,6,7,
{8}8-4[2:1],1,1,1,1,1,1,1,
{8}1/5,1/5,2/6,2/6,{16}3,7,2,6,1,5,8,4,
{16}7,5,7,,,,2,4,2,,,,6,8,6,,
{16},,3,1,3,,,,2/6,,3,,4/7,,6,,
{16}5b-1[8:1],5b,5b,5b,5b,,,,2v5[8:1]/8v5[8:1],,,,2V46[4:1]/8,,,,
{4}6V82[4:1],2V46[4:1],6-8[8:1],2,
{16}6,5,6,7,6,,3,4,3,2,3,,1h[8:1]/8h[8:1],,,,
{8}2/7,1/6,5/8,4/7,{16}8,1,2,3,5,6,7,8,
{8}4-1[8:1],,4pp6[4:1],5,,2,3h[4:1],,
{4}5-8[8:1],5-2[8:1],5-1[8:1],5,
{8}2-7[8:1],,2,6pp8[8:1],,6,{16}5,4,3,2,
{8}1/7,8,2/6,1,3/5,6,1/7,3,
{16}8b,,3,4,2,,7b,,3,5,2,,6b,,3,4,
{8}2,1/5,2/6,3/7,{16}4,5,6,7,8,1,2,3,
{16}4,8,4,8,4,8,4,8,4,8,4,8,4,8,4,8,
{16}5,1,5,1,5,1,5,1,5,1,5,1,5,1,5,1,
{1},
{2}6h[2:1],{32}1-5[8:1],8,7,6,5,4,3,2,1,,,,,,,,
{16}6,4,6,5,6,,3,5,3,4,3,,7,5,7,4,
{16}7,,2,4,2-6[8:1],5,2,,2/7-3[8:1],,,,1/7,,,,
{16}2,4,3,4,3,,6,8,7,8,7,,3,1,2,1,
{16}2,,7,5,6,5,6,,1,8,1,8,1,8<1[16:19],1>8[8:9],,
{1},
{2},{16}1,2,8,7,2,3,7,6,
{16}4,7,5,6,1,,5,2,4,3,8,,3,6,3,6,
{16}1,8,1,8,2,8,1,8,1,7,1,8,1-5[8:1]*s5[8:1],8,2,7,
{1}1b,
{8},,,,2-5[8:1],,,4-7[8:1],
{16},,,,6-1[8:1],,,,,,8-3[8:1],,,,,,
{8}1v4[8:1],,,3v6[8:1],,,5v8[8:1],,
{8},7v2[8:1]*<8[8:13],
