&title=MARENOL
&artist=LeaF
&first=0
&des=lyd16UMeng
&des_5=lyd16UMeng
&lv_5=14
&inote_5=(140){4},,,,{48}3b/2b,
4/1,5/8,7z3[16:11]/6q2[16:11],{1},{4},{16},,{24},{16}1,
8,,1,{8}8,2/7,
1v6[8:1],5,6,7,8v3[8:1],4,3,2,
1q5[8:1],5,6,7,8p4[8:1],4,3,2,
1pp3[8:1],3,4,5,8qq6[8:1],6,5,4,
3/5,1,6/4,{16}7,7,{8}5,1,3/5,{16}2,2,
{8}4,8,6/4,{16}7,7,{8}6/8,7/2,1/3,2/7,
{16}3,5,3,5,4,6,4,6,2,7,2,7,3,6,3,6,
{32}3b,2,1,8,7,6,5,4,3,2,1,8,7,6,5,4,8b,1,2,3,4,5,6,7,8,1,2,3,4,5,6,7,
{48}8bw4[8:3],{4},,,{48}C,,,,,,,,,,,{8}2/6,
3,5h[16:3],{16}6,6,{8}8-4[8:1],7/1,8,2,
7/3,6,4h[16:3],{16}3,3,{8}1-5[8:1],2/8,1,7,
{32}4v2[8:1]/5v7[8:1],3/6,{16}2/7,,,{4}5/4,{32}4v2[8:1]/5v7[8:1],3/6,{16}7/2,,,{4}5/4,
6bv5[8:1],6bq4[8:1],6b<3[8:1],{64}6b,D7,A7,D8,A8,D1,A1,D2,{8}A2,
7h[4:1],8,6,{16}4,5,{8}3,2,7/2h[8:1],6,
2h[4:1],1,3,{16}5,4,{8}6,7,2/7h[8:1],1,
{16}8,7,1,6,2,1,3,8,4,5,3,6,1,8,2,7,
2,7,2,4,2,7,2,4,2,7,5,7,2,7,5,6,
{1}2h[8:31]/7h[8:31],
,,,{24}8,
1,8,1,8,1,8,1,8,1,8,1,7,2,7,2,7,2,7,2,7,2,7,2,
6,3,6,3,6,3,6,3,6,3,6,3,5,4,5,4,5,4,5,4,5,4,5,4,
{12}6b-3[8:1],6,6,7b-2[8:1],7,7,3b-7[8:1],3,3,5b,5,5,
{1}5bw1[2:1],
{2}1s5[8:13],E8,
E7,E6,
8z4[8:13],E2,
E3,{8}E4,,,Ch[8:1],
{2}3b-6[8:13],{12}1b,1,1,8b,8,8,
{4}7b,{12}2,2,2,{4}2b-7[8:1],2b,
8/1h[2:1],7-3[8:1],7b,{8}8h[400:99]/1v6[8:1],1,
{4}1,{12}1/6,7/2,3/8,{4}3b-6[8:1]/8bV27[8:1],3b/8b,
{2}3p7[8:1],{12}6b,5,5,4b,4,3,
{4}2b>6[8:1],{12}6,7,8,{4}1bh[4:1],2bh[4:1],
{2}Ch[48:91],E3,
E1,E7,
(70){4}8>4b[16:1],{64}8bq2[8:1],7,6,5,,,,,,,,,,,,,{4}2>6b[16:1],{64}2bp8[8:1],1,8,7,,,,,,,,,,,,,{4}8<4b[16:1],
{64}8bq2[8:1],1,2,3,,,,,,,,,,,,,{4}2>6b[16:1],{64}2bqq5[0.8486##0.6428],1,8,7,,,,,,,,,,,,,(140){1}C,
{4}1b,{12}7/8-6[8:1],1/8,2/1-3[12:1],{8}8v5[8:1],1,{4}8,
8b,{16}8,8,1,1,{8}2pp4[8:1]/7qq5[8:1],6/3,{4}2/7,
{6}1b,{12}2/6,7/3,3/7,7/3,{4}2b-7[8:1]/6b-3[8:1],2b/6b,
{2}3h[8:3]/7h[8:3],{48}3b/7b,8x/4x,1x/5x,6x/2x,,,{8}7bx/3bx,{4}3bx/7bx,
{2}3h[8:3]/4h[8:3],{64}E4/E3,B4/B2,B1/B5,B8/B6,E8/E7,D8/D7,{4},{16},,{32},{2}Ch[8:3],
{64}B5/B1,E6/E2,A6/A2,D7/D3,A7/A3,D8/D4,A8/A4,D1/D5,{8}A5/A1,,,1-7-2-6-3-5[2:1],
,,,,,,Ch[8:1],
1v6[8:1],7/8,1v4[8:1],{16}7,7,{8}1-3[8:1]*-5[8:1],8,{4}1,
{8}8v3[8:1],2/1,8v5[8:1],{16}2,2,{8}8-6[8:1]*-4[8:1],1,{4}8,
{8}8h[8:3],1,2,3,4h[8:3],5,6,7,
{4}8<5[8:1],8>3[8:1],8-4[8:1],8,
{64}2/1>8[400:999],B2/E1,C/B8,B7/B6,{16}E7/A6,{4},,,{16},,{64}A1/A2,
E3/B1,B3/C,B4/B5,{16}E5/A5,,,,,,,,,,,,,,,{1}Ch[4:3],
{48}8b/1b,2b/7b,6b/3b,4bz8b[16:7]/5bs1b[16:7],{4},,,{16},,{24},{8}4/2,
3,7/5,{16}8,7,{8}8h[4:1],7,{4}1,
{8}5/7,6,2/4,{16}1,2,{8}1h[4:1],2,{4}8,
{8}1/8-4[8:1],7,8/2-5[8:1],1,2/7<4[8:1],8,7/1-5[8:1],2,
{4}8-5[8:1],8-3[8:1],8-4[8:1],8,
{8}6/8-4[8:1],7,8/1,{16}2,1,{8}2v5[8:1],5,{4}2,
{8}3/1-5[8:1],2,1/8,{16}7,8,{8}7v4[8:1],4,{4}7,
{8}7/2>5[8:1],3,2/8-4[8:1],7,8/1-5[8:1],2,1/7<4[8:1],6,
{4}1>3[8:1]*<7[8:1],1-5[8:1],1w5[8:1],1,
{48}7h[5:4]/B2,C,{24}B7,{120},,,,,,,,,,,,,,{5}3,4,5,6,
{48}2h[4:3]/B7,C,{24}B2,,,,,{4}6,5,4,
{48}7h[5:4]/B2,C,{24}B7,{120},,,,,,,,,,,,,,{5}3,4,5,6,
{48}2h[4:3]/B7,C,{24}B2,,,,,{4}6,5,4,
{48}7h[5:4]/B2,C,{24}B7,{120},,,,,,,,,,,,,,{5}3,4,5,6,
{48}2h[4:3]/B7,C,{24}B2,,,,,{4}6,5,4,
{48}7h[5:4]/B2,C,{24}B7,{120},,,,,,,,,,,,,,{5}3,4,5,6,
{2}1pp3[4:7],{48}E1,B1,{24}E2,,,,,,,,,,,{1}4h[1:1],
{4},3>5[2:1],{8}5,5,{4}5>2v5[8:3],
,,8p4[4:1],4p8[4:1],
8<4[4:1],4>8[4:1],8p3[4:1],3,
{2}1>4[4:1],{8}5,6,{4}7<4[4:1],
{8},,3,2,3,2,{4}3<6[4:1],
{8},,,,6h[8:1],7h[8:1],8h[8:1],1h[8:1],
{1}2s6[4:3],
8b,
E
