&title=Lionheart
&artist=Masayoshi Minoshima
&first=0.033
&des=
&des_2=-
&des_3=-
&des_4=-
&des_5=
&des_6=
&des_7=colorful skin
&lv_7=θΉ­
&inote_2=
&inote_3=
&inote_4=
&inote_5=
&inote_6=
&inote_7=(132){4},,,,2-6b[4:3]`8>2[8:1],
8/4-8[8:1],4/8<6[8:1],8,
3>1[8:1]`1-5b[4:3],3/4-8[8:1],4/7<5[8:1],7,
7-3b[4:3]`4-7[8:1],4/2v5[8:1],2/7-3[8:1],7,
8-4b[4:3]`6-8[8:1],6/5-1[8:1],5/7v4[8:1],7,
{8}7v4b[4:3]`2-7[8:1],2,2/8v5[8:1],8,{16}8/1v4[8:1],,,1,,,,,{8}5-1b[4:3],
5,5/3v5[8:1],3,{16}3/7v1[8:1],,,7,,,,,{8}8z4b[4:3]`3-8[8:1],
8,8/2-6[8:1],2,{16}2/7-4[8:1],,,7,,,,,{8}5>3[8:1]`3-7b[4:3],
3v5[8:1],{4}5,{16}6<8[8:1],,,6,,,,,{8}4/5<8[16:3],
4/A6,4/A7,4/A8,4/8<5[16:3],4/A7,4/A6,4/A5,
5/4>1[16:3],5/A3,5/A2,5/A1,5/1>4[16:3],5/A2,5/A3,5/A4,
{16}4,5,4,5,3,6,3,6,2,7,2,7,2,7,2,7,
{4}8-5b[16:9],2V85[16:3],{8},,,,5-1b[4:7],
6,6,7qq5[8:1],7,7,,6/4-8[8:1],
3,4/6-2[8:1],7,6/3>1[8:1],4,5/3,,,1-5b[4:7],
2,2,3v1[8:1],3,3,,8/1v4[8:1],
2,1/8-6[8:1],7,8/2-5[8:1],1,2/7,,,7-3b[16:27],
6,6,5<8[8:1],5,5,,7/1s5[16:3],
2,1/7,8,4>1[8:1]/8<5[8:1],,,,,2-6b[4:5],
2,8pp4[4:1],8,8,,,5/1,
5<8[8:1]/1>4[8:1],5/1,{4}1/5,{8}4b,3b,2b,1b,
7-3b[4:7]/1-5b[4:7],7/1,2<6[4:1]/6<2[4:1],2/6,6/2,,,8z4[16:3],
8,8,,,4>2[16:1]*<6[16:1],{16}4,4,,,,,{8}7z3b[2:3],
6q2[8:1],5,6,4,{16}3,3,,,7,7,
{8}1q5[8:1],6p3[4:1],1,6,{16},,2,2,,,,,{8}3V16b[16:25],
4-2-8[16:5],5,7,6,{16}5,5,,,5,4,
{8}3,2,7V16[16:3],5,7,{16}3,3,,,,,{8}6p2b[4:3],
4q8[16:1],6,4,7p2[16:3],8,1,1,
{16}1b,1,8,8,2b,2,7,7,3b,3,6,6,4b,4,5,5,
{8}3V58b[16:29],2>4[16:1],1,2,5pp7[8:1],3,,1p5[8:1],
6,1,6,7,7V58[8:1],4,7,2,
2V84b[16:25],3>1[16:1],4,3,8q6[8:1],2,,1-3[16:1],
7-5[16:1],1-5[8:1],7-4[8:1],1,7,2,,1pp5b[0.4545##3.4091],
7p4[0.4545##0.4545],2,7,1pp2[0.4545##0.2273],2,1,,8q4[0.4545##0.2273],
1,8v3[0.4545##0.2273],1,8,1-5[0.4545##0.2273],8,1,6pp3b[0.4545##3.4091],
6pp7[0.4545##0.3409],8V62[0.4545##0.4545],8,1,2,{16}3,,,,{8}5v2[0.4545##0.3409],
2,5v4[0.4545##0.2273],1,5pp3[0.4545##0.4545],2,5,2,2,
{4}2-6[8:1]*pp4b[3:1],5>2[8:1],2-6[8:1]*pp4b[3:1],5>2[8:1],
2-6[8:1]*pp4b[3:1],5>2[8:1],2-6[8:1]*pp4b[3:1],5>2[8:1],
2-6[8:1]*pp4b[3:1],5>2[8:1],2-6[8:1]*pp4b[3:1],5>2[8:1],
2-6[8:1]*pp4b[3:1],5>2[8:1],{8}2,1,{4}7-3[8:1]*qq5b[3:1],
{8}4<7[8:1],4,7-3[8:1]*qq5b[3:1],8,4<7[8:1],4,{4}7-3[8:1]*qq5b[3:1],
{8}4<7[8:1],4,7-3[8:1]*qq5b[3:1],8,4<7[8:1],4,{4}7-3[8:1]*qq5b[3:1],
{8}4<7[8:1],4,7-3[0.4545##0.2273]*qq5b[0.4545##0.6061],8,4<7[0.4545##0.2273],4,,8b-4b[2.0454##0.1136],
8bz4b[1.8182##0.1136],8bs4b[1.5909##0.1136],8bp4b[1.3636##0.1136],8bq4b[1.1364##0.1136],{2}8bw4b[0.9091##0.1136],
{64}8b,B7/B8/B1/E8/E1,B6/C/B2,E6/B5/B4/B3/E3,{16}A5/D5/A4/D4/A3,
E
