&title=クライングハート
&artist=「ノラと皇女と野良猫ハート2」OP
&first=0.024
&des=Tane
&freemsg=「ノラと皇女と野良猫ハート2」OP
&wholebpm=
&des_1=Tane
&des_2=Tane
&des_3=Tane
&des_4=Tane
&des_5=Tane
&lv_1=3
&lv_2=4
&lv_3=6
&lv_4=9
&lv_5=13
&inote_1=(178){1},
{8},,,,
,,,,
{8}1,,,,
,,,5,
{8},,,,
,,,,
{8}2,,,,
,,,3,
{16},,,,
,,,,
,,,,
,,,,
{8}57,,,,
,,,24,
{8},,,,
18,,,,
{8}2-6[2:1],,,,
,,,,
{8}5h[2:1],,,,
,,45,,
{4}45,,,,
{4}2,,,,
{8}3V16[2:1],,,,
,,,,{1},
{4}25,,,,
{4}5,,,,
{4}1-5[4:1],,,,
{1}3>6[2:1],
{4},56,,,
{4}34,,,,
{1}4pp1[4:5],,
{4}12,,,,
{1}45,
{2}1/2,,
{1}1b/8b,
{8}4h[2:1],,,,
,,,4,
{8},,,,
6,,,,
{8}5h[2:1],,,,
,,,5,
{8},,,,
3,,,,
{8}3h[2:1],,,,
,,,3,
{8},,,,
7,,,,
{8}6h[2:1],,,,
,,,6,
{8},,,,
2,,,,
{4}56,,,,
{4}57,,1-4[2:1],,
{4},,7<2[2:1],,
{2},4b,
{2},5b,
{4},,,,
{8}6,,,,
,,,34,
{8},,,,
,,,65,
{8},,,24,
,,,37,
{8},,,1b/8b,,,,,
{8}1,,,,
2,,,,
{8}3,,,4,
,,,6,
{2},7p3[2:1],
{8},,,1,
,,,,
{8}6,,,7,
,,,4,
{8},,3h[2:1],,
,,,,
{4}5b<4[1:1],,,,
{2},,
{8}8,,,,
7,,,,
{8}6,,,5,
,,,3,
{8},,,,
2,,,7,
{8},,,4,
,,,,
{4}6,,2,,
{4}3,,7,,
{4}78,,,,
{8}18,,,,
,,,,
{8}4,,,,
2qq2[1:1],,,,
{8},,,,
,,,,
{8},,6,,
,,,2,
{8},,,45,
,,,,
{4}7,,,,
{4}5,,,,
{4}1,,2,,
{1}1h[4:3],
{8}1,,,,
,,,3h[4:3],
{8},,,,
,,,,
{8}5,,,,
,,,7h[8:5],
{8},,,,
1,,,,
{8}34,,,,
,,,7,
{4},,1,,
{8}1,,,,
5,,,,
{8}2,,,,
1,,,3bqq5[4:11]/6bpp4[4:11],
{1},,,,,,,,
&inote_2=(178){1},
{8},,,,
,,,,
{8}1,,,,
,,,5,
{8},,,,
,,,,
{8}2,,,,
,,,3,
{16},,,,
,,,,
,,,,
,,,,
{8}57,,,,
,,,24,
{8},,,,
18,,,,
{8}2-6[2:1],,,,
,,,,
{8}5h[2:1],,,,
,,45,,
{4}45,,,,
{4}2,,,,
{8}3V16[2:1],,,,
,,,,{1},
{4}25,,,,
{4}5,,,,
{4}1-5[4:1],,,,
{1}3>6[2:1],
{4},56,,,
{4}34,,,,
{1}4pp1[4:5],,
{4}12,,,,
{1}45,
{2}1/2,,
{1}1b/8b,
{8}4h[2:1],,,,
,,,4,
{8},,,,
6,,,,
{8}5h[2:1],,,,
,,,5,
{8},,,,
3,,,,
{8}3h[2:1],,,,
,,,3,
{8},,,,
7,,,,
{8}6h[2:1],,,,
,,,6,
{8},,,,
2,,,,
{4}56,,,,
{4}57,,1-4[2:1],,
{4},,7<2[2:1],,
{2},4b,
{2},5b,
{4},,,,
{8}6,,,,
,,,34,
{8},,,,
,,,65,
{8},,,24,
,,,37,
{8},,,1b/8b,,,,,
{8}1,,,,
2,,,,
{8}3,,,4,
,,,6,
{2},7p3[2:1],
{8},,,1,
,,,,
{8}6,,,7,
,,,4,
{8},,3h[2:1],,
,,,,
{4}5b<4[1:1],,,,
{2},,
{8}8,,,,
7,,,,
{8}6,,,5,
,,,3,
{8},,,,
24,,,57,
{8},,,45,
,,,,
{4}6,,2,,
{4}3,,7,,
{4}78,,,,
{8}18,,18,,
,,,,
{8}4,,,,
2qq2[1:1],,,,
{8},,,,
,,,,
{8},,6,,
8h[4:1],,,2,
{8},,,45,
,,,,
{4}7,,,,
{4}5,,,,
{4}1,,2,,
{1}1h[4:3],
{8}1,,,1,
,,,3h[4:3],
{8},,,,
,,,,
{8}5,,,5,
,,,7h[8:5],
{8},,,,
1,,,,
{8}34,,,3,
,,,7,
{4},,1,,
{8}12,,,,
65,,,,
{8}12,,,,
1,,,3bqq5[4:11]/6bpp4[4:11],
{1},,,,,,,,
&inote_3=(178){1},
{8},,,,
,,,,
{8}1q5[8:3],,,,
,,,5V37[8:5],
{8},,,,
,,,,
{8}2v4[8:3],,,,
,,,3-5[8:5],
{16},,,,
,,,,
,,,,
,,,,
{8}57,,,,
,,,24,
{8},,,,
18,,,,
{8}2-6[2:1]/7-3[2:1],,,,
,,,,
{8}4h[2:1]/5h[2:1],,,,
,,45,,
{4}45,,45,,
{4}2,,7,,
{8}3V16[2:1],,,,
,,,7,{1},
{4}25,,47,,
{4}5,,4,,
{4}1-5[4:1],,8-4[4:1],,
{1}3>6[2:1],
{4},56,,,
{4}34,,,,
{1}4pp1[4:5],,
{4}12,,78,,
{1}45,
{2}1/2,7/8,
{1}1b/8b,
{8}4h[2:1],,,,
3,,,4,
{8},,,,
6,,,,
{8}5h[2:1],,,,
6,,,5,
{8},,,,
3,,,,
{8}3h[2:1],,,,
4,,,3,
{8},,,,
7,,,,
{8}6h[2:1],,,,
5,,,6,
{8},,,,
2,,,,
{4}56,,34,,
{4}57,,1-4[2:1]/4,,
{4},,7<2[2:1],,
{2},4b,
{2},5bw1[2:1],
{4},,,34,
{8}6,,,,
,,,34,
{8},,,,
,,,65,
{8},,,24,
,,,37,
{8},,,1b/8b,,,,,
{8}1,,,,
2,,,,
{8}3,,,4,
,5,,6,
{2},7p3[2:1],
{8},,,1,
,,,,
{8}6,,,7,
,5,,4,
{8},,3h[2:1],,
,,,,
{4}5b<4[1:1],,,,
{2},,
{8}8,,,,
7,,,,
{8}6,,,5,
,4,,3,
{8},,,,
24,,,57,
{8},,,45,
,,,,
{4}6^3[2:1],,2,,
{4}3^6[2:1],,7,,
{4}78,,12,,
{8}18,,1-4[4:1]/8-5[4:1],,
,,,,
{8}4,,,,
2qq2[1:1]/4,,,,
{8},,,,
,,,,
{8},,6,,
8h[4:1],,,2,
{8},,,45,
,,,,
{4}7,,5,,
{4}5,,3,,
{4}1,8,2,6,
{1}1h[4:3],
{8}1,,,1,
,,,3h[4:3],
{8},,,,
,,,,
{8}5,,,5,
,,,7h[8:5],
{8},,,,
1,,,,
{8}34,,,3,
,,,7,
{4},,1,,
{8}12,,78,,
65,,34,,
{8}12,,,,
1,8,,3bqq5[4:11]/6bpp4[4:11],
{1},,,,,,,,
&inote_4=(178){1},
{8},,,,
,4h[8:3],,,
{8}1q5[8:3],,,,
,,,2-8[8:5]/5V37[8:5],
{8},,,,
,,,,
{8}7V15[8:3]/2v4[8:3],,,,
,,,3-5[8:5]*V17[8:5],
{16},,,,
,,,,
,,,,
,,,,
{8}57,7,7,7,
,2,2,2,
{8},,,,
1h[4:1]/8h[4:1],,,,
{8}3V15[2:1]/6V84[2:1],,,,
,,,,
{8}4h[2:1]/5h[2:1],,,,
,45,45,,
{4}45,3,45,6,
{4}2,2,7,7,
{8}3V16[2:1],,,,
,,,7-2[2:1],{1},
{4}25,3,47,6,
{4}5,5,4,4,
{4}1-5[8:1]/2-4[8:1],,7-5[8:1]/8-4[8:1],,
{1}3>6[2:1]/4p5[2:1],
{4},56,7,34,
{4}2,18,27,36,
{1}4pp1[4:5]/5pp8[4:5],,
{4}12,3,78,6,
{1}4h[2:1]/5h[2:1],
{2}1/2-7[8:1],7-2[8:1]/8,
{1}1b-4[2:1]/8b-5[2:1],
{8}4h[2:1],,,,
3,,,4h[8:5],
{8},,5,,
6,,,,
{8}5h[2:1],,,,
6,,,5h[8:5],
{8},,4,,
3,,,,
{8}3h[2:1],,,,
4,,,3h[8:5],
{8},,1,,
7,,,,
{8}6h[2:1],,,,
5,,,6h[8:5],
{8},,8,,
2,,4,,
{4}56,6,34,3,
{4}57,6,1-4[2:1]/4,,
{4},,7<2[2:1],,
{2},4bw8[2:1],
{2},5bw1[2:1],
{4},,,34,
{8}6,,3,4,
,7,,34,
{8},,56,,
,,6,65,
{8},2,2,24,
,7,7,37,
{8},1b,1b,1b/8,
8z4[8:5],,,,
{8}1,,,2,
2,,,3,
{8}3,,,4,
,5,,6,
{2},7p3[2:1],
{8},,,1-5[4:1],
,,,,
{8}6,,7,7,
,5,,4,
{8},,3>6[2:1],,
,,,,
{4}5b<4[1:1],,,,
{2},1s5[8:5],
{8}8,,,7,
7,,,6,
{8}6,,5,5,
,4,,3,
{8},,,,
24,,,57,
{8},,,45,
,,,,
{4}6^3[2:1],2,2,2,
{4}3^6[2:1],7,7,7,
{4}78,78,12,12,
{8}18,18,1-4[4:1]/8-5[4:1],,
,,,,
{8}4,,2h[8:5],,
,,,4,
{8},5,,6h[8:3],
,,,,
{8},,6,,
8h[4:1],,,28,
{8},,,17,
,,,,
{4}7,6,5,4,
{4}5,4,3,2,
{4}1-4[8:1],8-5[8:1],2-7[8:1],6-3[8:1],
{1}1h[4:3],
{8}1,,,1,
,2,,3h[4:3],
{8},,,,
,,,,
{8}5,,,5,
,6,,7h[8:5],
{8},,,,
1,,8,,
{8}34,3,3,3,
,7,7,7,
{4},,1,,
{8}12,,78,,
6,6,3,3,
{8}45,,,,
27,27,,3bqq5[4:11]/6bpp4[4:11],
{1},,,,,,,,
&inote_5=(178){1},
{8},,,,
,4,3,2,
{8}1q5[8:4]/5h[4:1],,,5,
,6,,7h[8:3]/5V37[8:5],
{8},,,8,
8,6,6,,
{8}8-2[8:3]/6h[4:1],,,6,
,7,,8h[8:3]/4-2[8:1],
{16},,,,
,,8,1,
8,,8,,
7,,6,,
{8}2b/5b,3,4,4b/7b,
,6,5,1b/5bV37[4:3],
{8},,,2,
{16}1,,,2,
,,3,,
{8}56,56,47,47,
38,38,12,12,
{4}1h[2:1]/2h[2:1],,{16},,12,38,
47,,,,
{8}6h[4:1]/5,,2,,3h[4:1]/4
,,7,7h[8:3],
{8},,8,,1/2h[4:1],,6,,
{8}1h[2:1]/8h[2:1],,,,
,1V73[8:5],8,7h[8:7],
{8},,,,
,,5,,
{8}25,,3,3h[4:1],
,4,,7/3-7[8:3],
{8},,,,
,6h[4:1],8,8,
{4}8^3[8:1]/1,4,1^6[8:1]/8,5,
{8}15,26,37,48,
,48,48,48,
{8}5h[4:1]/7,,1,,
2/4h[4:1],,8,8h[8:3],
{8},,6,,1h[4:1]/3,,6,,
{8}2h[2:1]/7h[2:1],,,,
,1-5[8:1],5<4[8:4],7h[8:7],
{8},,,,
,,4,,
{8}7h[4:1]/8,,5,5h[4:1],
,8^3[4:1],,3qq8[8:3],
{8},,,,
,1,1,1,
{4}1q5[8:1],,7-1[8:1]/4V26[8:1],,
{8}18,18,27,36,
,45,45,45,
{8}4qq4[8:5],,,,
5,,,6<3[8:7],
{8},4,4,,
5,,,,
{8}4pp4[8:5],,,,
2,,,3>6[8:7],
{8},5,5,,
4,,,,
{8}5qq5[8:5],,,,
7,,,6<3[8:7],
{8},5,5,,
4,,,,
{8}5pp5[8:5],,,,
3,,,2,
{8},1,8,7,
{16}1,8,1,8,
27,,,,
{8}3-8[8:1],,34,,
6,5,6,4/7-4[8:1],
{8},,1,,
3-8[8:1]/4-7[8:1],,34,,
{8}7-4[8:1],,37,,
3,4,3,2^5[8:1]/5,
{8},,,71,
2/8<3[16:5],,84,2,
{8},,,71,
2/8<8[8:4],,84,2,
{8},,,,
,2,1,2,
{8}38,,78,61,
,1-5[8:1]/2-6[8:1],,,
{8},,2v4[8:1]/6v8[8:1],,,,37,15,
{16},,1,,
8,,7,,
6,5,6,5,
6,,4b/7b,,
{8},3b/8b,3b/8b,3b/8b,
3,2,1s5[4:1],8,
{8}7h[4:1],,,8z4[8:1],
1h[4:1],,,1,
{8}37,,8,2/6<2[4:1],
,2>6[4:1],,6,
{8},,,4,
26,,1,3/7z3[8:3],
{8},3,2,1-5[8:1],
,,,,
{8}56,,34,3pp4[4:1]/4,
,4>6[8:3],,1,
{8},,5q5[2:1],,
7,,8,8,
{8}8b>5[4:4],,4b,4b,
,5b,,6b,
{8},7b,,8b,
7,6,5z1[4:1],4,
{8}3h[4:1],,,4s8[8:1],
5h[4:1],,,5,
{8}1pp1[8:3],,5,6,
,8qq8[8:3],,4,
{8},,,4,
26,,1,37,
{8},2q6[8:3]/7p3[8:3],45,27,
,,,,
{4}34,34,56,56,
{4}5/6pp3[2:1],5,4,2,
{8}12,3,12,8,
78,6,78,1,
{16}1,8,1,,
27,,27,,
8,1,8,7,
6,5,4,,
{4}3h[8:1],3h[8:1]/7,3h[8:1],3h[8:1]/4,
{4}3h[8:1],3/1<4[2:1],3,2,
{8}1h[8:1],,1h[8:1]/3,,
1h[8:1],,8,17,
{8},8,1,2^5[8:1]/8,
,,6,7,
{8}8h[8:1],,8h[8:1]/6,,
8h[8:1],,8/3^6[4:1],,
{4}6-8[4:1],8v1[4:1],1-3[8:1],3,
{16}6,,7,5,
6,,2,4,
3,,8,6,
7,,1,3,
{8}2,,56,56,
{16},,6,5,
7,,8,,
{8}1-3[8:1],,1,8-6[8:1],
,8V24[4:1],,8,
{8},,,7,
6,5,4,,
{8}3^6[8:1],,3,7-2[8:1],
,7/3<1[4:1],,37,
{16},,,,
,,6,5,
7,,8,,
1,,2,,
{8}3V51[4:1],4,5,6,
,7V13[4:1],8,1,
{16},,,,
,,1,2,
3,,,1,
,,8,,
{8}78,78,16,16,
25,25,34,34,
{8}3bv1[8:1]/4bv6[8:1],,,,
16,16,,2bqq4[4:11]/5bpp3[4:11],
{1},,,,,,,,
