&title=GOODWORLD
&artist=EBIMAYO
&first=0.05
&des=DASONGBING
&lv_5=13+
&des_5=DASONGBING
&inote_5=
(165){4},,,,5xh,
5,5,5,
5,5,5,5,
5/4xh,4,4,4,
4,3,{16}E8,E7,E6,E5,{4}E4,
8x/1x,1,8/1,1,
8/1,8,8/1,8,
4x/5xh,5,6/4,6,
{24}E2,B2,B3,E4,,,E8,B7,B6,E6,,,{8}2,{16}8,1,{4}8,
{16}4>2[8:1],,,6,{8}4,6,{16}4,5,,,{8}5/4,4/3,
{16}1/2>4[8:1],,,8,{8}2,8,{16}5,6,,,{8}4/3,5/4,
{16}5/6-8[8:1],,,4,{8}6,3,{16}4,5,,,{8}6/3,7/2,
{16}1/8<6[8:1],,,2,{8}8,3,{16}E4,E3,E2,E1,{8}E8,5,
{4}6/1h[8:1],6/2h[8:1],6/3h[8:1],6/4h[8:1],
3/8h[8:1],3/7h[8:1],3/6h[8:1],3/5h[8:1],
{8}6x/4x,6,6,6,5/3,3,2,2,
1x/8x,E8,E2,C,E6,B5,{4}E4f,
{1}1<2[1:1],
2<3[1:1],
3>4[8:7],
{8},,E1,C,{4}E5,5,
{16}3h[16:3],,,4h[16:3],,,{8}5,8/1,{16}2,2,,,{8}6<8[8:1],
4,6,4,3,2,{16}8,8,,2/7,,1,
{8}1-5[8:1],,,8-4[8:1],,,{4}2v5[8:1],
{8},7v4[8:1],,,{4}1>4[8:1],1b,
{8}6h[8:1],{16}4,5h[8:1],,3,{8}4h[8:1],2h[8:3],{16}8,8,,7,{8}7,
3h[8:1],{16}5,4h[8:1],,6,{8}5h[8:1],7h[8:3],{16}1,1,,,{8}2,
6h[8:1],{16}4,5h[8:1],,3,{8}4h[8:1],2h[4:1],{16}5,5,,,{8}7/8,
,2-4[8:1],1-5[8:1],2,{4}1,3/4,
{8}7h[8:1],{16}1,8h[8:1],,2,{8}1h[8:1],3h[8:3],{16}5,5,,6,7,8,
{8}1xh[8:1],{16}2,6h[8:1],,4,{8}5h[8:1],3h[16:5],6h[16:1],{16},7,,8,
{8}8-4[8:1],,,1-5[8:1],,,{4}7v4[8:1],
{8},2v5[8:1],,,{4}8-4[8:1],8b,
5b/4b,{16}2xh[8:1]/1xh[8:1],,,2xh[8:1]/1xh[8:1],,,{8}6xh[8:1]/7xh[8:1],{16},8xh[8:1]/1xh[8:1],,,{4}5b/4b,
{16}7xh[8:1]/8xh[8:1],,,8xh[8:1]/7xh[8:1],,,{8}2x/1x,{4}1x/2x,
5b/4b,{16}1xh[8:1]/2xh[8:1],,,2xh[8:1]/1xh[8:1],,,{8}7xh[8:1]/6xh[8:1],{16},8xh[8:1]/1xh[8:1],,,{4}5b/4b,
{16}7xh[8:1]/6xh[8:1],,,2xh[8:1]/1xh[8:1],,,{8}8x/7x,{4}8x/7x,
{16}3h[8:1],,,4,{8}2,8/1,{16}7h[8:1],,,8,{8}6,5/4,
{16}4/3,,,1,{8}2,{16}3,4,,4,{8}3,6/5,5/4,
4,3,3,2,{16}7,3,6,4,5x,5x,5x,5x,
{4}5x,,,Cf,
5h[8:1]/4h[8:1],{16}8,1,6x,3,7,2,5x,4,8,1,6x,4,
5,3,7x,5,6,4,8x,2,6,4,7x,2,7,3,7x,4,
{4}7h[8:1],{16}8,7,2x,5,6,3,5x,4,8,1,7x,2,
6,1,7x,3,5,2,7x,1,5x,5x,5x,5x,{8}5x,{16}4,5,
{4}3h[8:1],{16}1,8,5x,6,1,8,3x,4,8,7,1x,6,
2,5,3x,8,3,7,3x,6,3,5,3x,8,2,6,4x,8,
{4}2h[8:1],{16}4,5,8x,7,4,5,2x,1,4,6,3x,5,
{24}1bx,2x,3x,4x,,,8bx,7x,6x,5x,{48},,,,{16}3h[16:3],,,4,{4}8b,
3>6[4:3],3,5h[8:1],6q3[2:1],
,7,{2}8,
6>1[4:3],{4}3h[8:1],1q6[2:1],
4h[8:1],3h[8:1],7v4[8:1],7,
{8}6/5,5/6,{16}1,8,3x,4,1,8,3x,4,1,8,5x,6,
1,8,5x,6,3,8,4x,5,1,7,4x,5,3,6,1x,8,
{4}2h[8:1],{16}7,1,6x,2,5,3,4x,4,4x,4x,4x,4x,
{1}4x,
3-5-7-1[4:3],
5-7-1-3[4:3],
7-1-3-5[4:3],
{16}1h[16:3],,,2h[16:3],,,{8}3,{4}7qq4[2:1],7,
,2pp5[2:1],{2}2,
{8}8-4[8:1],,,1-5[8:1],,,{4}7v4[8:1],
{8},2v5[8:1],,,{4}8<5[8:1],8b,
{8}1/8,{16}3,5,4,6,{8}5,7,{16}4,5,{8}3,{16}6,5,
{8}7,{16}5,6,4,5,{8}3,4,{16}2,2,,,{8}8,
8/1,{16}6,4,5,3,{8}4,2,{16}5,5,,,{8}1pp4[8:5],
,8,7,6,{4}5,E7,
{8}5/4,{16}2,8,1,7,{8}8,6/5,{16}3,4,{8}2,{16}5,4,
{8}6,{16}7,1,8,2,{8}1,4/3,{16}5,5,,8/1,,4,
{8}4-8[8:1],,,5-1[8:1],,,{4}3v8[8:1],
{8},6v1[8:1],,,{4}4>1b[16:3],{16}5bx,6x,7x,8x,
,,{8}7/5,{16},4/2,,,{8}1/8,7/5,4x/2x,1x/8x,
5b/4b,4,{16}6,5,{8}7,4/3,{16}2,1,{8}2,8/7,
{16},6/5,,,{8}4/3,6/4,1/2,8/7,5/3,7/6,
2/1,6/4,7/5,{16}3,4,,,{8}2/1,8/7,5/6,
{16}4>1b[8:1],,,5,{8}4,6,{16}8>3b[8:1],,,7,{8}8,6,
5/4,5,{16}8,7,{8}8,6/5,{16}2,2,,,{8}8/1,
{16},7/2,,,{8}6/5,4/3,2/1,6/8,2/1,4/3,
5/6,3/1,5/6,{16}8,8,,,{8}6/5,4/3,2/1,
{24}8bx,7x,6x,5x,,,8bx,7x,6x,5x,{48},,,,{16}4/3,,,2,{8}1,4/3,
6b/5b,6,{16}3,4,{8}2,5/6,{16}8,1,,,{8}5/4,
{16},4/3,,,{8}2/1,8/6,5/4,3/1,8/7,5/6,
4/2,1/8,7/5,{16}4/3>1[8:1],5,,,{8}3,6,5,
{16}4>2b[8:1],,,6,{8}4,7,{16}5/1-3b[8:1],,,7,{8}1,5,
8/7,5/6,{16}4,5,{8}3,1/2,{16}4,4,{8}8/7,5/6,
{16}3,4,,,{8}7/6,4/2,{16}1/8<5[8:1],,,3,{8}8,2,
{4}1>5b[8:1],1b/7-3b[8:1],7b/2v5[8:1]*v8[8:1],2b,
{8}3/1,5/4,8/6,3/4,{4}8/1,7/3,
{1}Cf/B7/B1/B3/B5,
E
