&title=Spirit of the Dauntless
&artist=KO3 & Relect
&first=0.03
&des=nameless
&lv_5=14
&des_5=nameless
&inote_5=
(180){4},{8},,,,,,,,,,,,,,4/5-8-3[4:3],
4,{4}5,4h,3V17[4:3],
{2}2xh[4:1],7-3[2:1],
{8}3-5-1[4:3],2h,{4}1h,8,1V37[4:3],
{2}8h[4:1],7<3[2:1],
{8}3s7[4:3],2,{4}1,6,7-2-6-1[4:3],
{2}2h[4:1],1>2-4<6[4:3],
{8}8,1,{4}2,4h[4:1],5h[1:1],
{1}4h[4:3],
{8}8/1-3[8:1],8,7/1,7,6/1-4[8:1],6,1/7,7,
1/8-6[8:1],1,2/8,2,3/8-5[8:1],3,8/2,2,
7/3-1[8:1],7,8/3,8,7/3-5[8:1],7,3/6,6,
3/7-5[8:1],3,4/7,4,3/7-1[8:1],3,{4}7b/2b,
{16}4,7,4,7,3,6,3,6,2,5,2,5,1,4,1,4,
2,1,3,8,4,7,5,6,3,4,2,5,{32}1,8,7,6,5,4,3,2,
{2}1/Ch[4:11],{4}4h,3h,
2h[4:7],B2,E2,E3,
B2,E2,B2,E3,
{16}3/6,,,2/7,,,{8}1/8,{16}1-5[8:1],8,2,7,{4}1b,
8z4[8:1],{8}3,2,{4}1s5[8:1],{8}6,7,
{4}8z4[8:1],{8}3,2,{16}1h[2:1]/A4,D5,A5,D6,A6,D7,A7,D8,
{4}8xz4[8:1],{8}3,2,{4}1s5[8:1],{8}6,7,
{4}8z4[8:1],{8}3-7[8:1],2,{4}6h[8:1],{8}8b/1b,4b/5b,
{4}1s5[8:1],{8}6,7,{4}8z4[8:1],{8}3,2,
{4}1s5[8:1],{8}6,7,{16}8h[#0.6666641]/A5,D5,A4,D4,A3,D3,A2,D2,
{4}1x-3[8:1],{8}8-4[8:1],7,1-5[8:1],2,8-6<1-5[2:1],7,
2h[16:1],2h[16:1],2h[16:1],2h[16:1],2w6[8:1],2h[8:1],,,4bx/8bx-4[8:1],
3,2/8-6[8:1],3,{4}8/5,{8}3/7,2,
5/1-5b[8:1],6>4-8[4:1],7/1-3b[8:1],6,{4}1,{8}7-4[8:1],{16}6,5,
{8}4/7b-1[8:1],3,2/7-5[8:1],2,{4}7/3h[8:1],{8}6/2-6b[8:1],1-5[8:1],
2,1,{16}3,4,{8}3,{4}2/5,8b/1b,
{8}6/2,7,4/8-4[8:1],3<5-1b[4:1],2/8-6[8:1],3,{4}8,
{8}3/5,4/6,{16}7,8,{8}7,{16}2/1,,,3,{8}3,{16}4,5,
4,5,3,6,2,7,1,8,{4}1-6[8:1]*-4[8:1],1w5[1:1],
{1}1,
{8},4h[4:1],,5h[8:1],4h[8:1],5h[8:1],4h[8:1],{16}5,4,
5,5h[8:1],,4,{8}4h[8:1],{16}5,5h[16:1],{8}4,{16}5/4,5/4,{4}6bv4[8:1]`3bv4b[8:1],
{16},,,,6,5,{8}6,{16}8,7,{8}8,{16}6,5,{8}6,
{16}8,7,{8}8,{16}6,5,{8}6,{16}8,7,{8}8,{16}6v3[8:1],5,{8}6,
{16},,,,2,1,{8}2,{16}4,3,{8}4,{16}2,1,{8}2,
{16}4,3,{8}4,{16}2,1,{8}2,{16}4,3,{8}4,{16}2v7[8:1],1,{8}2,
{16},,,,6,5,{8}6,{16}8,7,{8}8,{16}1,2,{8}1,
{16}3,4,3,4,2,8,1,7,5-1b[8:1],6,5,6,{4}Cf,
8/2-6[8:1],7-5[8:1]/2-8[8:1],7-3[8:1]/2-5[8:1],2/7>8-4[4:1],
{16}1/7,1,,2,{4}2,{16}4,3,2,1,{4}8/7-3[8:1],
2-4[8:1]/7-1[8:1],2-6[8:1]/7-4[8:1],2-8[8:1]/7-3[8:1],7/2>3-7[4:1],
{16}2/5,5,,6,{4}6,{16}8,1,{8}8,5/4,4/5,
1bs5[8:1]/8bz4[8:1],2b/7b,{4}8b/1b-3[8:1],1-5[8:1]/6-4[8:1],1/6,
{8}6/2,{32}3bx,4bx,3bx,4bx,{4}3bx-8[8:1],3<6[8:1]/7>2[8:1],3/7,
{16}4b,5,3,6,2,7,4b,5,3,6,2,7,4b,5,3,6,
{4}4h[2:1],5h[4:1],{16},D4/D6,A6/A3,D3/D7,A7/A2,D2/D8,A8/A1,E1,
{4}A7h[4:15],E7h[2:7],B7h[4:13],E8h[1:3],
{2}B3,B4,
{16}D1,A1,D2,A2,D3,A3,D4,A4,E5,B4,B3,B2,B1,E1,D1,A1,
D2,A2,D3,A3,D4,A4,D5,E5,B4,B3,B2,B1,{4}C,
B4h[4:15],B3h[2:7],B8,B7,
{2}B6h[4:3],B7h[4:1],
1x<6[8:1],8x>3[8:1],
1x<6[8:1],8x>3[8:1],
{8}8h[2:1],1,{4}2h[4:3],{8},,3,4,
5h[4:3],,,4,{4}3,2h[2:1],
{8}1,8,{4}7h[1:1],{8},6,5,4,
3h[4:3],,,2,{4}1,8h[2:3],
{8}7,7,{4}7h[4:1],{8},6,6,6,
6h[4:1],,,6/8,{4}7/5,6/4,
{8}5/4,3,{4}2,{8},4/5,6,7,
{4}8w4[8:3],,,2bx/6bx,
{8}1/2-4[8:1],1,5/2,5,6/1-5[8:1],6,4/1,4,
8/7-5[8:1],8,4/7,4,3/8-4[8:1],3,5/8,5,
6/2-8[8:1],6,7/2,7,6/2-5[8:1],6,7/2,7,
2/6-4[8:1],2,3/6,3,2/6-1[8:1],2,{4}3b/6b,
{16}5,2,5,2,6,3,6,3,7,4,7,4,8,5,8,5,
7,8,6,1,5,2,4,3,6,5,7,4,{32}8,1,2,3,4,5,6,7,
{2}8/Ch[4:7],{4}5h,6h,
7h[4:3],{8}B7,B6,{4}B8,B7,
{8}2b-7[8:1]/6b-3[8:1],1b/5b,{4}6b/2b-4-7b[16:3],{8}2/1-3-6[16:3],1,8-2-5b[16:3],8,
7-1-4[16:3],7,6,{16}6,6,{4}5bxv2b[8:1]`7bxv2[8:1],5b/7b,
7b-2[8:1]/3b-6[8:1],3b/7b-5-2[16:3],{8}7/8-6-3b[16:3],8,1-7-4[16:3],1,
2-8-5b[16:3],2,3,3,{4}3xh[8:1]/4xh[8:1],{8}4/5,4/5,
5b/4b-8b[8:1],3b/6b,{4}5b/4b-6-1[16:3],{8}4/3-5-8b[16:3],3,2-4-7[16:3],2,
1-3-6b[16:3],1,8,8,{12}7xh[12:1],8xh[12:1],5,2xh[12:1],1xh[12:1],4,
{4}4b/5b-3-8b[16:3],{8}5/6-4-1[16:3],6,7-5-2b[16:3],7,8-6-3[16:3],8,
{4}1-5-8-4-1b[8:3],,,2b/8b<6[8:1],
{8}1b,2b,3bh[8:1],{16}4,3,{8}4,{16}2,1,{8}2,{16}4,3,
{8}4,{16}2,1,{8}2,{16}4,5,{4}5bh[4:1]/4bh[8:1],4bv1[8:1],
{8}5,6,7h[8:1],{16}8,7,{8}8,{16}6,5,{8}6,{16}8,7,
{8}8,{16}6,5,{8}6,7,{16}7h[8:1]/8h[8:1],,,6h[16:3]/5h[16:3],,,,,{8}B4,
B3,{4}B2h[4:5],B5,B6,
{2}B7h[2:1],B3/E4/B4,
{8}B7,B6,{4}B5h[8:5],{8}B2,B3,{4}B4h[8:1],
{16}8/1,,,2/7,,,3/6,4,{8}5,{16}5,4,{4}3/6,
{8}2h[4:5]/1-5[8:1],B2/E3/B3,{4}B1,4,{8}3-7[8:1],B2/E2/B1,
{4}B3,{8}6,5,{4}4/3,5/4,
{8}6h[4:5]/5-1[8:1],B7/B8/E8,{4}B5,8,{8}7-3[8:1],B5/E5/B4,
{4}B7,2,{16}1,8,{8}1,4/5,4/5,
7h[4:5]/8-4[8:1],6x,{4}8x,5,{8}6-2[8:1],8x,
{4}6x,{8}3,4,{4}5/6,4/5,
{8}3h[4:5]/4-8[8:1],2,{4}4,1,{8}2-6[8:1],4,
{4}2,7h[2:1],{32}A8,D1,A1,D2,A2,D3,A3,D4,{4}A4fh[32:0],
{8}3b/6b-1[8:1],7,2-7[8:1]/6-3[8:1],3,{4}6/2-5b[8:1],{8}2-8b[8:1],7,
2/6,5,{16}6,5,{8}6,{4}2/1-5[8:1],{8}1/2-6b[8:1],3,
2,8-4-6-1[4:1],1/2-5b[8:1],3,{4}2,{8}3/7-2[8:1],6/2-6[8:1],
3/7,8,{32}8bx-4b[8:1],7bx,8bx,7bx,{8}8bx,{16},,,3xh[8:1]/5xh[8:1],,,,,{8}1-5b[8:1],
8-4[8:1],1-3b[8:1],8-6[8:1],1,8,4,5,
4/5,4/5,3/4,5/4,5/6,8/7,1/2,3/4,
{16}3,4,2,5,1,6,8,7,5,6,4,7,{32}3,2,1,8,7,6,5,4,
{4}3/7h[16:13],{8}3,4,5,{32}4,3,2,1,{4}8w4b[1:2],
{1}8,
E
