&title=フロム
&artist=TRUE
&first=0.04
&des=senorita
&freemsg=
&wholebpm=
&des_1=
&des_2=
&des_3=
&des_4=
&des_5=
&clock_count=4
&lv_5=13+
&inote_1=
&inote_2=
&inote_3=
&inote_4=
&inote_5=(123)
{1},
{16}3xh[8:1]``4x,,1,2,8,,6xh[128:48]``5x,,,,,,8-4[12:1],7,1,,
{16}83,,2q6[12:1],,1,,2x,,,,7p3[12:1],1,8,,7x,,
{16}8h[4:3],,,,5,,,,6,,,,7,7,8,,
{16}16,,27,,38,,3,5,4,6,5,7,1w5[12:1],8,2,,
{16}1b,,,,34,,2pp2[4:1]/5,,8,8,2,,7,,6,,
{16}25,,4,,3,,2/8qq8[4:1],,2,2,8,,1,,3,,
{16}74,,5,,6,,7/4qq4[4:1],,6,6,4,,7,,8,,
{16}31,,2,,3,,4/6pp6[4:1],,3,3,6,,4,,,,
{16}3xh[8:1]``4x,,1,2,8,,6xh[128:48]``5x,,,,8,,1,,2x-7[8:5]````3x-6[64:38],,
{1},
{8}7>3v5[2:1],3,4,5,,C,,,
{8}2q6[8:3],8,7,6>2[8:3],,B7``B8,,,
{8}8,7,6q2[4:1],1,2q6[4:1],C,,,
{8}3,4,5,6,,B6``B5,,,
{4}5-8[2:1],4,3,2,
{4}5-8[2:1],4,3,2,
{4}5-8[2:1],4,3,2,
{8}5-8[2:1],5,4,4,3,3,2,2,
{16}13,,,68,,,4b/5b,,,,35,,4,,35,,
{16}3-1[12:1],,,,4/3-8[12:1],,5,,36,,4,,6/5-2[12:1],,,,
{16}6-1[12:1],,,,6,,4,,63,,,5,4qq5[4:1],,2^5[8:1],,
{16},,,,,,,,6,,4,,56,,7,7,
{16}68,,,13,,,4b/5b,,,,64,,5,,64,,
{16}6-8[12:1],,,,5/6-1[12:1],,4,,63,,5,,3/4-7[12:1],,,,
{16}3-8[12:1],,,,3,,5,,36,,,4,5pp4[4:1],,7<3[6:1],,
{16}4>5[4:1],,,,,,3x,,,,4,4,6,6,3,3,
{8}24,35,46,57,68,1w5[1.5088##0.3]/7,28,1-5[1.0251##0.3]b/3h[16:7],
{16}1?-5[0.7811##0.3],,,,,,,,,,,,4p6[16:3],5,3,6<4[4:1],
{16}4bx,,,,,,8,,1-6[8:1],,3h[4:1],,1>8[4:1],,,,
{16}1/5-1[8:1],,,,5,,2q8[16:3],,1,,8<2[4:1]/2,,,,1,,
{16}1-5[8:1],,,,17,,6,,8-3[8:1],,6h[4:1],,8<1[4:1],,,,
{16}8/4-8[8:1],,,,4,,7p1[16:3],,8,,1>7[4:1]/7,,,,8,,
{16}8-4[8:1],,,,82,,1>6[16:3],,,,16,,7,,8,,
{16}1-6[64:7]`5-2[64:7],,,,1>8[4:1]/5,,,,15,,,,6,,6^7[16:1]`8-5[64:7],,
{16},,6qq7[4:1]`8pp7[4:1],,,,,,,,,,15,,2,2,
{16}4,4,6,6,8,,7^4[12:1]/1,,,,{32}3b/7b,2x,1x,8x,{16}7x-4-1[4:1],,,,
{16}1>7[4:1]/7b,,,,,,8,,1-6[8:1],,3h[4:1],,1>8[4:1],,,,
{16}1/5-1[8:1],,,,5,,2-5-8[4:1],,1,,8<2[4:1]/2,,,,1,,
{16}1-5[8:1],,,,17,,6,,8-3[8:1],,6h[4:1],,8<1[4:1],,,,
{16}8/4-8[8:1],,,,4,,7-4-1[4:1],,8,,1>7[4:1]/7,,,,8,,
{16}8-4[8:1],,,,82,,1-5[8:1],,,,1/7-3[8:1],,,,7/4qq5[4:1],,
{16},,5/4<3[32:9],,6q3[32:5],,,,,,,,,,2/5pp4[4:1],,
{16},,4/5>6[32:9],,3p6[32:5],,,,,,,,34,,8,,
{16}56,,1,,6,6,4,4,53,,42,,3/1v4[4:5],,8v5[8:9]/2,,
{1},
{1},
{8},,
E
