&title=游园地
&artist=椒盐菠萝
&first=0.02
&des=Jason Willing
&lv_6=13+
&inote_6=(128){1},
{2},1s5[8:1],
{4}6h[1:2],5,,5,
{4},4,,4,
{4}3h[1:2],4,,4,
{4},5,,5,
{4}6h[1:2],5,,5,
{4},4,,4,
{16}3h[4:1],,,,5,,,4/6,,4/6,,,7-3[2:1],,,,
{4},8,,2,
{16}3h[8:1]/4,,5,,5,3h[8:1],,5,4,6h[8:1],,4,5,3h[8:1],,4,
{16}2,,2h[8:1],,4,2,,6,4,7h[8:1],,4,6,3h[8:1],,5,
{16}3,,6h[8:1],,4,6,,4,5,3h[8:1],,5,4,6h[8:1],,5,
{16}7,,7h[8:1],,5,7,,4,6,3h[8:1],,5,4,6h[8:1],,5,
{16}6h[8:1],,4,,4,6h[8:1],,4,5,3h[8:1],,5,4,6h[8:1],,5,
{16}7,,7h[8:1],,5,7,,3,5,2h[8:1],,5,3,6h[8:1],,4,
{16}6,,3h[8:1],,5,3,,5,4,6h[8:1],,4,5,3,4h[4:1],,
{8},2h[4:1],,8h[4:1],,6h[4:1],,5,
{1}7b>4[8:15]/4bpp5[2:1],
{1},
{16},,1h[16:3],,,2h[16:3],,,3h[16:3],,,4h[16:3],,,5<3[2:1],,
{8},,,,,4,4qq3[2:1]*<1[8:17],,
{1},
{1},
{16},,2h[16:3],,,3h[16:3],,,4h[16:3],,,5h[16:3],,,6<4[2:1],,
{8},,,,,7v6[8:1],8/5,,
{16},,7h[8:1]/5h[8:1],,,6h[8:1]/4h[8:1],,,7h[8:1]/1h[8:1],,,2>1[16:5]/8h[8:1],,,3h[4:1]/1,,
{8},,3-5[8:1],,,6-8[8:1],7/5,,
{16},,2h[8:1]/4h[8:1],,,3h[8:1]/5h[8:1],,,8h[8:1]/2h[8:1],,,1h[8:1]/7<8[16:5],,,8/6h[4:1],,
{8},,6-3[8:1],,,1s5[8:1],,,
{16},,7h[8:1]/4h[8:1],,,6h[8:1]/5h[8:1],,,7h[8:1]/1h[8:1],,,2>1[16:5]/8h[8:1],,,3h[4:1]/1,,
{8},,3-5[8:1],,,7-1[8:1]*-4[8:1],8/6,,
{16},,2h[8:1]/5h[8:1],,,3h[8:1]/4h[8:1],,,8h[8:1]/2h[8:1],,,1h[8:1]/7<8[16:5],,,8/6h[4:1],,
{8},,6-2[8:1],,,1s5[8:11],8z4[4:5],,
{1},
{16},,,,,,,,,,3,,,2,,,
{1}1s5[4:6],
{1},
{4}8<4[4:1],4>8[4:1],8<4[4:1],4>8[4:1],
{4}8V64[4:1],4V28[4:1],8,4,
{16}4,6,4,6,5,7,5,7,4,2,4,2,3,1,3,1,
{16}5,7,5,7,6,8,6,8,
{24}5,4,3,2,1,8,5b-8[4:1],6,7,4-1[8:12],3,2,
{1},
{8},,,,,,,1/8,
{48}1/8,2/7,3/6,4/5,,,,,,,,,2,,,1,,,2,,,,2,,4-8[8:1],,,,3,,5,,,,,,2v7[8:1]*-5[8:1],,,,,,3,,,,,,
{32}2,,,,,,,,8,1,2,3,4,5,6,7,2,,,,8/3h[8:1],,,,4,,2v5[16:1]/5<8[16:1],,,,,,
{16}5/2,,,,1,1,2,2,3,3,4h[8:1],,7-3[8:1]*v4[8:1],5,6,,
{32}7,,,,,,,,1/2,,,,8,7,6,5,1/4,,,,2h[8:1],,,,
{24}1-6[8:1],,3,4,,2,
{48}1,,,,,,,,,,,,3,,,4,,,2,,,,2,,4-8[8:1],,,,3,,5,,,,,,2>8[4:3],,,,,,1,,,,,,
{1}7<1[2:1]/2,
{48}4,,,5,,,2,,,7,,,1/8,2/7,3/6,4/5,,,,,,,,,2,,,4,,,4,,,4,,,2w6[8:1],,,1,,,3,,,,,,
{32}2,,,,,,,,7/1,,,,1,2,3,4,5/8,,,,7h[8:1],,,,
{24}8-4[8:1],,6,5,,7,
{48}8,,,,,,,,,,,,6,,,5,,,7,,,,7,,5V31[8:1],,,,8,,2,,,,,,7w3[8:1],,,,,,6,,,,,,
{32}7,,,,,,,,1,8,7,6,5,4,3,2,1/7,,,,8/6h[8:1],,,,5,,4>1[16:1]/7v4[16:1],,,,,,
{16}7/4,,,,8,8,7,7,6,6,5h[8:1],,2w6[8:1],4,1,,
{32}2,,,,,,,,7/8,,,,1,2,3,4,5/8,,,,7h[8:1]/6,,,,
{24}8V24[8:1],,6,5,,7,
{48}8,,,,,,,,,,,,6,,,5,,,8,,,,8,,5-1[8:1],,,,6,,4,,,,,,8p2[8:3],,,,,,7<3[4:1],,,,,,
{2}8,1b-4[8:1]/8b-5[8:1],
{16}3h[8:1]/8,,4,,5,3h[8:1],,5,4,6h[8:1],,3,4,2h[8:1],,3,
{16}1,,4h[8:1],,2,4,,6,4,7h[8:1],,4,6,3h[8:1],,5,
{16}2,,6h[8:1],,4,7,,4,5,3h[8:1],,6,5,7h[8:1],,5,
{16}8,,7h[8:1],,5,6,,3,4,2h[8:1],,5,4,7h[8:1],,8,
{16}6h[8:1]/1,,4,,4,7h[8:1],,3,4,2h[8:1],,6,5,7h[8:1],,6,
{16}8,,5h[8:1],,6,5,,3,5,2h[8:1],,5,3,7h[8:1],,4,
{16}6,,3h[8:1],,5,2,,5,4,6h[8:1],,3,4,1,8h[4:1],,
{8},2h[4:1],,4h[4:1],,6h[4:1],,7,
{1}8>4[4:6]/5pp5[4:6],
{1},
E
