&title=フィクションブルー
&artist=Ayase feat.初音ミク
&first=0.002
&des=Amatou_Kurage
&lv_5=13+
&inote_5=(124){4},,,,
5h[4:4],4,,4,4h[4:4],5,,5,5h[4:4],4,,6,4h[4:4],5,,3,6h[4:4],5,,7,3h[4:4],4,,2,5h[4:1],4h[4:1],5-8[8:1],1b,
{16}3,4,3,7h[8:1],,4,6,5,6,2h[8:1],,1,2,8,3,7,5,6,5,8h[8:1],,2,4,3,4,1,8,8,2,7,4,5,6/2h[8:1],,4,3,,45,,5/7h[16:3],,,8,,17,,2,,7/3h[8:1],,1,2,,18,,8/6h[16:3],,,5,,46,,3,,2,1,2,7,5,6,3,4,3,7h[8:1],,8,7,8,6,2,4,3,4,1h[8:1],,7,5,6,5,8,1,1,7,2,5,4,7h[8:1]/3,,8,6,,18,,1/3h[16:3],,,4,,43,,5,,26,,3,4,,65,,37,,,8h[8:1]/1h[8:2],,,,,,
{4}2q4[4:3]/6,6,6,6,{16}7h[16:3],,,6h[16:3],,,5,,6h[16:3],,,5h[16:3],,,4,,{4}7p5[4:3]/3,3,3,3,{16}2,,4,4,3,5,4,,6,5,6,,37,,37,,1-4[8:1],,,5,,6,,7,1-4[8:1],,6,6,7,,7,,8-5[8:1],,4,4,,3,,,2/8-5[8:1],,,3,3,,2,,1-4[8:1],,5,5,,6,,7,1-4[8:1],,6,,7,,7,,8h[4:2]/4h[4:1],,,,,,,,{24}6,5,4,3,2,1,{16}8h[256:1],8h[256:1],8h[256:1],8h[256:1],
17,,2,4qq5[16:5],,5,,6,,,8,,8h[8:1],,6,,57,,6,5p4[16:5],,4,,4,,,2,,2h[8:1],,3,,14,,2,4qq5[16:5],,5,,6,,,8,,8h[8:1],,6,,58,,6,5qq7[16:5],,4,,3,,,1,,1h[8:1],,5,,46,,3,1pp8[16:5],,8,,7,,,5,,5h[8:1],,7,,85,,6,8qq1[16:5],,1,,2,,,4,,4h[8:1],,2,,13,,7,,86,,54,,37,,5,4,,26,,,8<2[4:2]/1>7[4:2],,,,,,,,,,,,,,4h[8:5],,5h[8:4],,,,,,,,,,,,,,,,
5-8[4:1],,,,,,,,4-1[4:1],,,,,,,,5-8[4:1],,,,,,,,4-1[4:1],,,,,,,,5<8[4:1],,,,,,,,4>1[4:1],,,,,,,,5<8[4:1],,,,,,,,4>1[4:1],,,,,,,,{4}5h[4:4],,,,4h[4:4],,,,5p4[8:4],,,,{16}3,4,2,6,5,7,1,8,{32}2,3,4,5,6,7,8,1,{16}2-6[8:1]/4,,57,,
{16}2V41[16:3]/8,,1,1,,7,,6,6V84[4:1],,7,,46,,3,,2v5[12:1]*p6[12:1],,,2,,,4,,42,,1,,7-3[8:1]/3,,5,,7V51[16:3]/8,,1,1,,3,,2,2V48[4:1],,3,,28,,6,,6v1[12:1]*p2[12:1],,,6,,,8,,68,,5,,3-7[8:1]/7,,1,,3V14[16:3]/5,,4,4,,5,,,6-4[8:1],,,,6-2[8:1]/2,,8,,6V84[16:3]/5,,4,4,,2,,,3qq4[4:1],,,,8,,7,,6V85[16:3],,5,5s1[16:3],,4,,3,,2h[16:3],,,7,,18,,2,7,4,5,3,6,1,8,37,,,26,
{16}2-6[8:1]/6,,4,,2V41[16:3]/8,,1,1-5[8:1],,7,,6,6V84[4:1],,7,,6/4-2[8:1],,2,,1-5[12:1]*-6[12:1],,,1,,,4,,42,,1,,7-3[8:1]/3,,5,,7V51[16:3]/8,,1,1-6[8:1],,3,,2,2V48[4:1],,3,,2/8-6[8:1],,6,,5-1[12:1]*-2[12:1],,,5,,,8,,68,,5,,3-7[8:1]/7,,1,,3V14[16:3]/5,,4,4-8[8:1],,6,,7h[16:3],,,1,,6-2[8:1]/2,,8,,6V84[16:3]/5,,4,4-7[8:1],,2,,,3qq4[4:1],,,,8,,7,,6V85[16:3],,5,5s1[16:3],,4,,3,,2h[16:3],,,7,,18,,2,6,4,8,3,7,1,5,2-6[8:1],,,8,8,,4,,5h[8:1],,4,5,,42,,57,,8z4[16:11]/1,8/1h[16:14],,
