&title=Le Petit Prince
&artist=cubesato
&des=えども~ん
&first=0
&lv_1=1
&lv_2=3
&lv_3=9
&lv_4=11+
&lv_5=12+
&lv_6=13
&lv_7=藏
&inote_1=
(50)
{1},,
{2}
1,1,8,8,7,7,6,6,5,5,4,4,
{1}4-1[4:1],8-5[4:1],6-2[4:1],3-7[4:1],
8h[2:1],1h[2:1],
{4}2,2,3,3,4,4,5,5,6b,
{1},,,,E
&inote_2=
(50)
{1},,
{4}
1,1,1,1,8,8,8,8,2,2,2,2,7,7,7,7,3,3,3,3,6,6,5,5,
{2}4-1[4:1],8-5[4:1],6-2[4:1],3-7[4:1],8>3[4:1],4<7[4:1],8-4[4:1],5-1[4:1],
8,12,78,27,
{8}45,45,45,4b/5b,
{2}34,23,
{8}18,18,18,18,1b/8b,
{1},,,,E
&inote_3=
(50)
{1},,
{2}
1h[2:1],2h[2:1],3h[2:1],4h[2:1],5h[2:1],6h[2:1],7h[2:1],8h[2:1],
{4}
1h[2:1],8,2h[2:1],1,3h[2:1],2,4h[2:1],3,
{8}
5-1[8:1],4-8[8:1],,,2-6[8:1],2b,
{16},8,8,,
{8}7-4[8:1],8-3[8:1],,,4,5,6,7,
{16}1/8-5[16:1],1-4[16:1]/8,7,2,,,8b,,
{8}35,47,26,17,1h[16:1]/8h[16:1],1h[16:1]/8h[16:1],1h[16:1]/8h[16:1],1h[16:1]/8h[16:1],
1h[16:1]/8h[16:1],2h[16:1]/7h[16:1],3h[16:1]/6h[16:1],4h[16:1]/5h[16:1],
{2}4-1[8:1]/5-8[8:1],2-4[8:1]/7-5[8:1],4qq1[8:1]/5pp8[8:1],
{8}2,2,2,2b,
{16}1-5[8:1],2h[16:5],8,8,,,,,
{8}6,6,6,6b,5qq1[8:1],6h[8:2],,,26,26,37,37,
{1}8b<5[2:1]/4b>1[2:1],8>3[2:1]/4<7[2:1],8qq5[2:1]/4qq1[2:1],2V41[2:1]/6V85[2:1],,E
&inote_4=
(50)
{1},,
{32}
1-4[8:1],,,,,,,,,,,,,,1,2,,,,,,,,,1,2,1,2,,,,,
5-8[8:1],,,,,,,,,,,,,,5,6,,,,,,,,,5,6,5,6,,,,,
4v7[8:1],,,,,,,,,,,,,,4,3,,,,,,,,,4,3,4,3,,,,,
8v3[8:1],,,,,,,,,,,,,,8,7,,,,,,,,,8,7,8,7,,,,,
2v7[8:1]/8,,,,,,,,,,,,,,16,16,,,,,,,,,2,3,4,5,,,,,
4/5v8[8:1],,,,,,,,,,,,,,73,73,,,,,,,,,7,8,1,2,,,,,
{16}6V84[8:1],6,3-1[16:1],3,,,,,1-3[16:1]/4-7[16:1],,2b/5b,,,,84,
,1,,83,4,,16,5<1[8:1],,1-5[8:1],,2,3,,4,4-1[16:1],4-7[16:1],4b-8[16:1],4b,,,,6,17,
,28,,17,86,,57,{8}4-8[16:1]/6,3-7[16:1],2-6[16:1]/4,1-5[16:1]/3,8-4[16:1]/2,7-3[16:1]/1,6-2[16:1]/8,57,86,,
23,34,45,,1b,,45,56,67,78,
{16}81,2,3,,76,76,,82,8-4[16:1]/2h[16:4],,1b,1b,8<5[16:1],2,,12,83,,45,,37,73,,16,1>4[16:1]/6,7,8,7,6,5,
,6,5<8[16:1],4,3,2,1,2,3,4,5,6,7>6[16:60],
{1},,,,,E
&inote_5=
(50)
{1},,
{2}2h[2:1],8h[2:1],{4}4h[2:1],{4}7h[8:1],{8}6h[2:1],,4h[12:1],3h[12:1],
{8}2s6[4:1],1,8,7,8w4[6:1],,,,
{8}6z2[4:1],5,4,3,4w8[6:1],,,,
2V48[4:1],1,8V62[5:1],7,6w2[6:1],,,,
6V84[4:1],5,4V26[5:1],3,2w6[6:1],,,,
{16}4V26[16:1]/5V73[16:1],,81,81,,,3-1[5:1]/6-8[5:1],,45,,,,,,27,,
3v6[16:1]/6v3[16:1],,74,52,,,27,,
{8}3h[8:1],{64}4,2,,,{8}6h[8:1],{64}5,7,,,{16}1V75[8:1],4/7V53[8:1],1/5V31[8:1],8/3V17[8:1],1-5[16:1],,,,,,
45,,35,2,1-3[16:1]*-6[16:1]/6,7,1-7[16:1]*-4[16:1]/8,1,{8}1>5[16:1]*<5[16:1],1w5[16:1],1,1,
5p4[8:1]/4q5[8:1],5<4[8:1]/4>5[8:1],54,
{4},7,7,7/1b,7,{16}7,,,{16}4,62,{32}7,{64}3,5,4,,,,{32}7,,7/1,{64},5,{32}1,{64},8,{32}4,,
6h[32:1]/3h[32:1],,7h[32:1]/4V25[16:1],,5V38[16:1],,{16}8-4[16:1],8,64,6h[8:1],,,2b/7b,,
8<4[8:1],,4q8[8:1],4,,1,1,,3v2[8:1],,3h[8:1],,,,5V74[16:1],4V61[16:1],1-5[16:1],,4,3,2,1b,
{8}1bV35[2:1],8,7,6,5v8[1:1],,,,4,3,2,1,1<1[1:2],,,,,2,,,,4,,,,6,,,,8,,,,
&inote_6=
(50)
{1},
{16}4h[2:1],,,5,5,6,6,,7h[2:1],,,5,5,4,4,,
{32}3q6[4:1],4,2,5h[32:9],{8},,{32},,7,7h[32:12],{8},,{32}8,1,2,3h[32:6],{8},
{32}5s1[4:1],4,6,3h[32:9],{8},,{32},,2,2h[32:9],{8},,{48}1,2,1,2,1,2,6,5,6,5,6,5,
{32}4/7v4[10:1],,,1,2<5[8:1]/8,,3,,{8},,8h[32:8],,{32}2,1,8,7,,,,,
{32}5/3v8[10:1],,,5,6>1[8:1]/4,,7,,{8},,4h[32:8],,{32}5,1,3,7,,,,,
{32}4/6v1[10:1],,,2,8<2[64:7]/3,,7,,{16}4h[32:15],,,,{8}1h[32:7],,{32}14,38,72,16,,,,,
{32}5/3v8[10:1],,,7,1>7[64:7]/6,,2,,{16}5h[32:15],,,,{8}8h[32:7],,{32}8w4[16:1]/5,61,27,83,,,,,
{16}8b,,2/7>5[8:1],83,{64}6,,,4,{16}5,7/2w6[6:1],,1,,,,,48,48,,
{16}4,53,8/2>8[8:1],73,{64}1,,,8,{16}2,26,,5h[4:1],,{64}1,2,,,
{16}2h[16:3],,4,8^3[16:1],6h[8:3]/3-8[16:1],8-5[16:1],5^8[16:1],8w4[16:1],,,,,,
{16}26,,3V57[16:1]/2,7V13[18:1]/6,54,18,3,,
{8}5V71[12:1]/6V42[12:1],1V35[12:1]/2V86[12:1],56,12,
{8}8V64[12:1]/7V13[12:1],3V57[12:1]/4V28[12:1],78,34,
{8}3,37,3,3/7^2[3:1],4,7b,,7,3,37,
{16}6,5,37,{32}2,{64}6,4,5,,,,{32}2,,28,
{64},7,{32}6h[32:3],{64},3,{32}2h[32:1],,
{16}37,8-5[16:1]/4-1[16:1],8-3[18:1]/4-7[18:1],8b^5[16:1]/4b^1[16:1],8bw4[24:1]/4b,,,,,26,,
{16}45,7,1h[16:1],2h[16:1],1-5[16:1],5-2[16:1],2-7[16:1],7-4[16:1],4-1[16:1],,,,
{16}8>8[4:1],7,6,5,4-8[8:1],6,8,2,4,1b,1b,,
{8}3>6[2:1],4,5p4[3:1],5,,,,6,7>2[4:1],6,5<4[2:1],5,,,,,
{2}6h[2:1],5h[2:1],4h[4:3],3h[4:1],
&inote_7=
(50)
{1},,
{2}7h[2:1],1h[2:1],{4}5h[2:1],{4}2h[8:1],{8}3h[2:1],,5h[12:1],6h[12:1],
{8}7z3[4:1],8,1,2,1w5[6:1],,,,
{8}3s7[4:1],4,5,6,5w1[6:1],,,,
7V51[4:1],8,1V37[5:1],2,3w7[6:1],,,,
3V15[4:1],4,5V73[5:1],6,7w3[6:1],,,,
{16}5V73[16:1]/4V26[16:1],,18,18,,,6-8[5:1]/3-1[5:1],,54,,,,,,72,,
6v3[16:1]/3v6[16:1],,25,47,,,72,,
{8}6h[8:1],{64}5,7,,,{8}3h[8:1],{64}4,2,,,{16}8V24[8:1],5/2V46[8:1],8/4V68[8:1],1/6V82[8:1],8-4[16:1],,,,,,
54,,64,7,8-6[16:1]*-3[16:1]/3,2,8-2[16:1]*-5[16:1]/1,8,{8}8<4[16:1]*>4[16:1],8w4[16:1],8,8,
4q5[8:1]/5p4[8:1],4>5[8:1]/5<4[8:1],45,
{4},7,7,7/1b,7,{16}7,,,{16}4,62,{32}7,{64}3,5,4,,,,{32}7,,7/1,{64},5,{32}1,{64},8,{32}4,,
8h[32:1]/3h[32:1],,8h[32:1]/3V52[16:1],,2V48[16:1],,{16}8-3[16:1],8,63,6h[8:1],,,2b/7b,,
8<4[8:1],,4q8[8:1],4,,1,1,,3v2[8:1],,3h[8:1],,,,6V47[16:1],7V51[16:1],1-6[16:1],,4,3,2,1b,
{2}1b^4[1:2],8,7,6,5^8[1:2],,,,,,
