&title=Purgatorium
&artist=お月さま交響曲
&first=0
&des=草树 -煉獄-
&lv_5=14
&inote_5=(150)
{1},,
{4}2h[4:2]/8,,4h[4:4],,5<3[8:5],,,,
{4}7h[4:2]/4,,5h[4:4],,4>6[8:5],,,,
{16}1b/5b,,,,25,,,,34,,,45,,,5/7h[8:3],,
{16},,,,8,,,,16,,,25,,,3h[8:3]/4,,
{16},,,,5,,,,46,,,57,,,3/8h[8:3],,
{16},,,,4,,,,36,,,25,,,17,,
{12}2h[12:1],4,3,6h[12:1],4,5,3h[12:1],6,{24}4,5,{12}3-8[8:1]/6-1[8:1],,,
{4}3b>5[8:10]/6b<4[8:10],,,,,,{24},,,3,6,4,5-1[8:1]*s1[8:1],,3/6,,,,
{4}5b<4[4:4]*>5[4:4],,,,
{16},,,,,,18,18,2b-5[8:1]/7b-4[8:1],,,,2b/7b,,,,
{16}3/6,,3,4,3,4,2,2h[8:1],,5,3,4,2,5,3,4,
{16}2,2h[8:1],,5,3,4,2,2h[8:1],,5,3,4,2,2h[8:1]/8h[8:1],,,
{16}4/6,,6,5,6,5,7,7h[8:1],,4,6,5,7,4,6,5,
{16}7,7h[8:1],,4,6,5,7,7,1bw5[8:1],,,,1b,,,,
{16}2b,8,3,5,4,6,1b,7,3,6,4,5,2,6,4,5,
{8},,3h[4:2]/6,,5,,4,,
{8}34,3,31,3,34,5,46,7,
{16}8h[16:2]/5,,5,7h[16:3],,,6qq3[16:11],,8h[4:3],,,,,,,,
{8},,,,2h[8:1]/4h[8:1],,3h[8:1]/5h[8:1],,
{16}6h[16:3]/4,,,5h[16:3],,,7,,7h[16:3]/5,,,6h[16:3],,,8,,
{16}7/4h[16:3],,,6h[16:3],,,3,,2h[16:3]/5,,,4h[16:3],,,1<2[16:7],,
{16}8h[4:2]/1,,,,,,,,,,,,6,2,4,3,
{16}1b,,,,,,{24}4,5,4,3/6,,,{16}7,5,6,3,5,4,
{16}8-4[8:1],,,,2/8,,,,1-5[8:1],,6,,17,,,,
{16}4h[8:2]/8,,7,,6,,5h[4:1]/3,,2,,1,,26,,6,5,
{16}7h[16:3],,,1,8,,2qq6[16:6],,2/5h[4:1],,,,,,,,
{16}4,,,,51,,,,1h[8:1],,,,2h[8:1]/5h[8:1],,,,
{16}7h[16:3]/3,,,5,6,,45,,2h[16:3]/6,,,4,3,,46,,
{8}7b-4[8:1]/5-1[8:1],8,7b/5,,2b-6[8:1]/8-4[8:1],37,2b/8,,
{8}7<3[4:1],,,1,2pp5[16:5],,,8,
{16}7h[16:3],,,4,6>8[16:5],,3,,2h[4:1],,,,,,,,
{8}3V51[4:1],2/4h[8:1],,,6V84[4:1],7h[8:1]/5,,,
{16}8h[16:3],,,5h[16:3],,,6,,37,,2,6,3,4,1,,
{16}2b-6[8:1]/6b,,,,21,,,,8/4h[8:1],,7,,56,,4,5,
{16}3h[8:1],,1,,2h[8:1]/8,,7,8,6h[8:1],,3,4,1bw5[8:1],,,,1bqq3[16:5],,,,,,,,5h[16:3],,,2h[16:3],,,4,,
{12}3b/5,3,3,4/7b,7,7,{16}1b/6h[16:3],,,8,5,,1,,26,,{24}3,4,3,{16}5,2,6,3,7h[8:1],,8,16,,2,38,,
{16}5b-1[12:1]/7h[4:1],,,,,,,,{24}47,3,2,1,8,7,3/6,2,1,8,7,6,
{16}2b/5h[8:1],,1,,3,4,2h[8:1],,4<7[8:1],3,,3,4,,2,,
{16}8h[8:1]/3b,,4,,6,5,8h[8:1],,2-6[8:1],1,,1,2,,8,,
{16}7b-3[8:1]/5,,8,,5-2[8:1]/7,,4,,5<8[8:1]/7,,6,,5-1[32:3]/3,,4,,
{16}5b/7h[4:1],,,,8,1,2,3,4h[8:1]/6h[8:1],,,7h[8:1]/5h[8:1],,,78,,
{16}2b/6b,,1,,4,3,5h[8:1],,8,6,4,6,5,6,4,6,
{16}8b,,17,,6,5,7,,38,,2,12,,7,68,,
{16}7h[8:1]/5b,,,2b/4h[8:1],,,3/6b,,7h[8:1]/8b,,,3h[8:1]/2b,,,6/5b,,
{16}4b/8h[8:3],,,,1,,{24}1,2,3,4/8b,,,{16}7,7b/5,,3,4/2b,,
{16}1b/6b,,2,4,3,5,1h[8:1],,6,5,7,5,6,4,7,,
{16}8b/3,,7,5,6,4,8h[8:1],,1,5,2,4,3,6,2,,
{16}1b-6[8:1]/5,,2,,4-7[8:1]/1,,5,,2/4>1[8:1],,3,,4-8[32:3]/6,,5,,
{16}3h[4:1]/4b,,,,1,8,7,6,5h[8:1]/2,,4,4/6h[8:1],,5,57,,
{16}8b/3,,2,1,3,7,4,6,2h[8:1],,5,,41,,1,2,
{16}3b-5[32:3]/7b-3[8:1],,,,3b/7b,,,,8h[8:1]/6b,,,7h[8:1]/4b,,,6/3b,,
{24}1b/5,,,2,4,3,4,,,35,,,7,5,6,5,,,2b/4s8[8:4],,,,,,
{4}1h[4:3],,,{24}8,,,8,7,6,1b-5[4:1]/5-1[4:1],,,,,,,,,,,,,,,,,,8h[4:1]/1,,,1,2,3,4b-8[4:1],,,,,,,,,,,,6V84[8:4],,,,,,4h[8:1],,,,,,3h[8:1],,,,,,2h[8:1],,,,,,1h[4:1]/4b-7[8:1],,,,,,,,,1,2,3,4V25[8:3]/8b,,,,,,,,,,,,6<1[16:3],,,,,,6>4[8:3]*v4[8:3],,,,,,,,,,,,,,,,,,2h[8:1],,,,,,3h[8:1]/6h[8:1],,,,,,4bV61[8:3]/7h[4:2],,,,,,,,,,,,,,,,,,{16}2,5,3,6,
{24}4,5,4,5,4,5,3,6,3,6,3,6,2-5[32:3]/7-4[32:3],,,,,,2b/7b,,,,,,
{24}1b,8,1,8,1,8,1,8,1,8,1,8,{16}2,6,3,5,4,6,5,7,
{24}1,2,3,45,6,7,3,2,1,87,6,5,1,3,1,3,1,3,2>1[32:7],4,2,4,2,4,2b,,,,,,4,5,6,78,1,2,{16}3h[8:1]/5h[8:1],,,4h[8:1]/6h[8:1],,,46,,5h[8:1]/7,,8,,{24}5,4,3,8,7,6,3b,4,3,5,4,5,2,4,3,6,5,7,
{24}2b,3,4,5h[8:1],,,6,7,8,12,3,4,8b,7,6,5h[8:1],,,3,2,1,78,6,5,
{24}3b,2,1,8h[8:1],,,7,6,5,34,2,1,4b,5,6,7h[8:1],,,8,1,2,38,7,6,
{24}1b,4,3,4,2b,5,4,5,3b,6,5,6,3b,4,2,6b,4,5,2b,4,3,5b,6,7,
{1}4h[4:3]/8b>7[4:2],
{1}8bw4[8:5],1bw5[8:5],7bpp3[8:5]/2bqq6[8:5],
{8}4b/5h[4:1],,3,{24}5,4,5,{16}3h[8:1]/6h[8:1],,,2h[8:1]/5h[8:1],,,36,,
{16}4/7b,,5,6,5,6,5,,5,6,5,7h[8:1],,5,8,,
{16}3b/7,,2,1,2,1,2,,2,8,2,8h[8:1],,1,27,,
{16}3h[8:1]/4b,,,7h[8:1]/6b,,,{24}5b/8,4,3,2h[8:1]/6b,,,,3h[8:1]/7b,,,,,{24}4/8b,7,6,
{16}5h[4:1]/1b<2[4:1],,,,,,,,7h[8:1],,8,1b/6b,,28,3b/7b,,
{16}1b/5b,,2,2,6,5,7,4,6,1,4,3,7h[8:1],,{24}5,4,3,
{16}2/6b,,7,7,1,6,3,4,2,6,5,7,1h[8:1],,{24}8,7,6,
{16}5/2b,2,4,3,6,6,5,7,2,6,3,5,1,8,{24}2,3,4,
{16}1bw5[8:1]/5,,37,,,,,,3/8b,,7,5b/6h[8:1],,3,2h[8:1]/4b,,
{16}8b,,2,5,3,6,4,7,5h[8:1],,{24}8,7,6,5/2-6[8:1],,,{16}1,4,
{16}2b<7[8:1]*-4[8:1],,,,2b,,,,1b/5b,,3,2h[8:1]/4b,,8,7b/5,,
{4}1bq7[8:3]/6bV48[8:3],,,16,
{16}2/5,,2,4,3,5,2,2h[8:1],,5,3,6,4,5,3,4,
{16}2,2h[8:1],,5,3,4,2,2h[8:1],,5,3,4,2,2h[8:1]/8h[8:1],,,
{16}4/7,,7,5,6,5,7,7h[8:1],,4,6,3,5,4,6,5,
{16}7,7h[8:1],,4,6,5,7,7,8,6,1,5,3b,7b,5b,1b,E
