&title=远航星的告别
&artist=jixwang
&first=0
&des=Luvlily
&lv_5=13
&inote_5=(84){1},
{16}4-8-5-3-8[1:3],,,,,,,,,,,,,,,,
{16},,,,,,,,,,,,,,,,
{16},,,,,,,,,,,,,,,,
{16},,,,,,,,,,,,,,,,
{16}6h[16:10],,,,,,5,,,,4,,,,,,
{16}3h[16:6],,,{32},4,,,{16},5^3[8:1],,,,,,,,,,
{16}2h[32:7],,,{32},4^2[8:1],,,{16},5^7[8:1],,,,,,,,1,,
{128}27,,,,,,,,,,,,,,,,,,,,,,,,,,,65,,,,,,,,,,,,,,,,,,,,,34,,,,,,,,,,,,,,,,45,,,,,,,,,,45,,,,,,,,,,,,,,,,,,,,,,27,,,,,,,,,,1,,,,,,8,,,,,,,,,,8,,,,,,
{16}2-4[12:1],,,,62,,,,2-5[32:3]/8,,,,{12}6,8,,
{24}7-5[12:1],,1,,,1,7,,,,,,7-4[32:3]/8,,,,,,3,,1,,,,
{24}4-2[12:1],,5,,,6,4,,,,,,5-2[32:3]/1,,,,,,6,,8,,,,
{24}5-7[12:1],,4,,,3,5,,,,,,4-7[32:3]/8,,,,,,3,,1,,,,
{24}2^5[12:1],,8,,,6,2,,,,,,2p6[32:3]/7^1[12:1],,,3,,,27,,,,,,
{24}7^4[12:1],,1,,,3,7,,,,,,7p3[32:3]/2^8^2[6:1],,,6,,,72,,,,,,
{24}3^8[12:1],,4,,,7,3,,,,,,1^4[32:3]/5^8[32:3],,,,,,15,,,,,,
{24}3h[2:1],,,,,,5h[4:1],,,,,,,,,,,,6,,6,{128}4,,,,,,,,,4,,,,,,,
{24}7p4[4:1],,2,,,1,7,,,,,,3^6[32:3],,,2,,,1,,2,,,,
{24}3p8[4:1],,6,,,5,3,,,,,,7^4[32:3],,,1,,,3pp4-1^2[64:17],,,,,,
{24}7,,,,,,8^5[32:3]*q4[32:3],,,6,,,8,,,,,,3,,,17,,,
{16}6,5,,3,4,,7,5,,2,4,,3-8[32:3]/7v4[32:3],,15,,
{24}3<1[24:5]/7,,,,,,2,,,,,,5>7[24:5],,,,,,7,,6,,,,
{24}4V68-2[24:5],,1,,,3,4,,,,,,5V31-7[24:5],,,,,,7,,6,,,,
{24}4-1[32:3]*-7[32:3],,1,,,5,4,,,,,,2v5[32:3]/6-1[32:3],,,48,,,26,,,,,,
{24}5-8[32:3]*-2[32:3],,7,,,4,5,,,,,,3-6^8[32:5]/7-4^2[32:5],,,,,,3V15[8:1]/7V15[8:1],,,,,,
{24}3b/7b,,,,,,28,,,37,,,4/6,,3,5,,1,7-5-8-4[4:1],,26,,,3,
{24}7,,,2,,,1h[8:1],,,3h[8:1],,,5,,6,4,,8,2-4-1-5[4:1],,73,,,6,
{24}2,,,7,,,8h[8:1],,,6h[8:1],,,4h[8:1],,,2,,,1-4^2-5[32:9]*-6^8-5[32:9],,,37,,,
{24}1,,,,,,,,,,,2,6h[24:5],,,,,4,3^1v4[6:1]/5^7v4[6:1],,,,,,
{24}3b/5b,,,,,,35,,,26,,,1/7,,2,8,,4,6-4-7-3[4:1],,37,,,2,
{24}6,,,1,,,8h[8:1],,,2h[8:1],,,4,,7,1,,5,3-5-2-6[4:1],,62,,,7,
{24}3,,,8,,,1h[8:1],,,7h[8:1],,,5h[8:1],,,3,,,4-1^3-8[32:9]*-7^5-8[32:9],,,26,,,
{24}4,,,,,,,,,26,,,1^3-8[6:1]/5^7-4[6:1],,,,,,1/5,,,,,,
{24}8^3[32:3],,7,,,6,8-4[32:3],,,,,,1^6[32:3],,,2,,,3-7[32:3],,2,,,,
{24}5^2[32:3],,6,,,7,5q1[32:3],,,,,,4^7[32:3],,,3,,,2-6[32:3],,3,,,,
{24}8^3[32:3],,7,,,6,8-4[32:3],,,,,,1^6[32:3],,,2,,,3V15[24:6],,2V86[24:4],,,,
{24},,,,,,,,,26,,,8^6-1[6:1]/4^2-5[6:1],,,,,,8/4,,,,,,
{24}1^6[32:3],,2,,,3,1-5[32:3],,,,,,8^3[32:3],,,7,,,6-2[32:3],,7,,,,
{24}4q8[32:3],,3,,,2,4^1[32:3],,,,,,5-1[32:3],,,6,,,7^4[32:3],,6,,,,
{24}1-5[32:3],,2,,,3,1^4[32:3],,,,,,8-4[32:3],,,7,,,6^1[32:3],,7,,,,
{24}2-6[32:3],,,4,,,7-3[32:3],,,1,,,5-1[32:3],,,2-6[32:3],,,4,,,,,,
{24}8<1[1:2],,,,,,,,,,,,,,,,,,,,,,,,
{24},,,,,,,,,,,,,,,,,,,,,,,,
{24},,,,,,,,,,,,,,,,,,,,,,,,
{24},,,,,,,,,,,,6-3^1[32:5]/2-5^7[32:5],,,,,,6V84[8:1]/2V84[8:1],,,,,,
{24}6b/2b,,,,,,35,,,26,,,1/7-3[32:3],,4,5,,1,7-5-8-4[4:1],,2,,,8,
{24}7,,,1-5[32:3],,,3h[8:1],,,1,,,2-6[32:3],,5,4,,8,2-4-1-5[4:1],,7,,,1,
{24}2,,,8-4[32:3],,,6h[8:1],,,8,,,1h[8:1],,,3h[8:1],,,4-1^3-8[32:9]*-7^5-8[32:9],,,26,,,
{24}4,,,,,,,,,,,3,7h[24:5],,,,,1,2^4v1[6:1]/8^6v1[6:1],,,,,,
{24}2b/8b,,,,,,28,,,37,,,4/6-2[32:3],,2,8,,4,6-4-7-3[4:1],,3,,,1,
{24}6,,,8-4[32:3],,,2h[8:1],,,8,,,3-7[32:3],,7,1,,5,3-5-2-6[4:1],,6,,,8,
{24}3,,,1-5[32:3],,,7h[8:1],,,1,,,2h[8:1],,,4h[8:1],,,5-8^6-1[32:9]*-2^4-1[32:9],,,37,,,
{24}5,,,,,,,,,37,,,4qq4[6:1]*pp4[6:1]/6,,,,,,,,,,,,
{16}2v5[32:3]/6v1[32:3],,,,2v7[32:3]/6v3[32:3],,,,2v4[32:3]/6v8[32:3],,,,26,,,,
{16}35,,,6/2<6[32:5],,,5,,4w8[32:3],,,,4,,,,
{16}7v4[32:3]/3v8[32:3],,,,7v2[32:3]/3v6[32:3],,,,7v5[32:3]/3v1[32:3],,,,73,,,,
{24}2,,46,,,,3^6[32:3]/5p1[32:3],,,71,,,3/5,,,,,,2/7,,,,,,
{16}8v2[32:3]/4v6[32:3],,,,8v5[32:3]/4v1[32:3],,,,8v3[32:3]/4v7[32:3],,,,84,,,,
{24}35,,26,,,,7^2[32:3]/1p5[32:3],,,35,,,7/1,,,,,,26,,,,,,
{24}5,,3h[8:1],,,1-4^2-5[24:7],,,7h[8:1],,,1,,,,,,,6,,,8,,,
{24}1,,5,3,,,8,,4,6,,2,8,,4,6,,1,8,3,6,1,,,
{16}8v7[32:3]/4v1[32:3],,,,8v5[32:3]/4v3[32:3],,,,8>4[32:3]*<4[32:3],,,,8,,,,
{24}4,,26,,,,7-2[32:3]/1-5[32:3],,,35,,,7-3[32:3]/1-4[32:3],,,,,,1/7,,,,,,
{16}1v2[32:3]/5v8[32:3],,,,1v4[32:3]/5v6[32:3],,,,1<5[32:3]*>5[32:3],,,,1,,,,
{24}5,,73,,,,2-7[32:3]/8-4[32:3],,,64,,,2-6[32:3]/8-5[32:3],,,,,,8/2,,,,,,
{16}4v3[32:3]/8v5[32:3],,,,4v1[32:3]/8v7[32:3],,,,4<8[32:3]*>8[32:3],,,,4,,,,
{24}1,,37,,,,6-3[32:3]/4-8[32:3],,,28,,,6-2[32:3]/4-1[32:3],,,,,,4/6,,,,,,
{16}7v8[32:3]/3v2[32:3],,,,7v6[32:3]/3v4[32:3],,,,7pp1<5[32:6]/3qq1>5[32:6],,,,73,,,,
{24}46,,3,5,,,24,,5,3,,7,5,,2,4,,1,6,3,8,2,,,
{384}D1,E1,D8,D2,E8,E2,Cf,E4,D4,E6,D6,E5,D5,,,,,,,,,,,,,,,,,,,,,,,,,,,,,,,,,,,,,,,,,,,,,,,,,,,,,,,,,,,,,,,,,,,,,,,,,,,,,,,,,,,,
{24},,,,,,,,,,,,,,,,,,
{128},,,,,,,,E6,,,,,,,,,,,,,,,,
{24},,,,,,,,,,,,,,,,,,,,,,
{128},,,,,,,,,E5,,,,,,,,,,,,,,,
{24},,,,,,,,,,,,,,,,,,,,,
{128},,,,,,,,E4,,,,,,,,,,,,,,,,
{24},,,,,,,,,,,,,,,,,,,,,,
{128},,,,,,,,A2,,,B2,,,C,,,B6,,,,,,,
{24},,,,,,,,,,,,,,,,,,,,,
{128},,,,,,,D3,,,B3,,,B4,,,E5,,,,,,
{24},,,,,,,,,,,,,,,,,,,,,,,
{128},,,,,,,,,,,,,,,,,A3,,,,E4,,,,E5,,,,A5,,,,,
{24},,,,,,,,,,,,,,,,,,,,,,,
{128},,,,E6,,,,,,,,,E4,,,,,,,,,E5,,,,,,,,,,A6,,,D6,,,A5,,,D5,,,A4,,,D4,,,A3,,,,,,
{24},,,,,,,,,,,,,,,,,,,,,
{128},,,,,,,,,,,,,,,,,,,,,
