&title=Give me some more...
&artist=アルストロメリア
&first=0
&des=ユラミさん
&clock_count=4
&lv_5=13
&inote_5=(128)
{4},,,,,,
{8}
1x<3[8:9]/3xh[8:7],,,,,,,,,,,,{24},,B1,,B7,,B3,,,B5,,,{8}3x-1v8-6[1:1]/5xh[8:7],,,,,,,,Chf[4:3],,,,,A1/E1/A8,D2/D8/A7/A2/E7/E3/B6/B5/E5/B4/B3,,
{24}
2,,2h[8:1],,,5,5h[8:1],,,1,,1h[8:1],,,4,4h[8:1],,,2,,2,5h[8:1],,,
2,,2,4,,4,3,,3,6,,6,5,,5,7,,7,1h[12:1],,8x,,,,
7,,7h[8:1],,,4,4h[8:1],,,8,,8h[8:1],,,5,5h[8:1],,,7,,7,4h[8:1],,,
7,,7,5,,5,6,,6,3,,3,4,,4,2,,2,8,,8,1h[72:14],,,{72},,,,,B6/B7,,,,,,,,,,,,,,E2,,,,B2,,,,,,,,,,,,,E6,,,,B5,,,,B4,,,,E4,,,,,,,,,,,,C,,,8,,,,,,,,,
{8}
8h[8:3],1,2,3,4h[8:3],8,7,6,5-3[8:1],5,3,2,1-7[8:1],1,7,6,
5h[8:3],1,2,3,4h[8:3],5,6,7,8-2[8:1],8,2,3,4-6[8:1],4,6,7,
28,3,4/B6/B7,2,17,6,5/B2/B3,7,
46,7,8/A3/E4,6,35,2,1/A6/E6,3,
4<7[8:1],3,2,1,8>3[8:1],7,6,5,
5h[8:1],2h,8h,3h,8-5qq5[4:1],7,1b,,
8x<1[2:3],,E6,,,,E5,,,,E4,,,,E5,,
4pp4qq4[2:3],,E3,,,,E6,,,,C,,,,B4f,,
{16}
{16}
8,,,57,,,46,,,35,,,24,,2,1,2,,,35,,,46,,,57,,,68,,7,8,7,,7,,67,,7,,12,,2,,23,,2,,
1,8,2,7,{32}3,4,5,6,7,8,1,2,{16}3/8x-4[12:1],,7,,
8b/2q7[4:1],,1,,7xp2[4:1],,8,,2xq7[4:1],,1,,7xp2[4:1],,8,,2x,,1,,8-4[8:1],,7-5[8:1],,8,,7,,,,
8,,17,,26,,3xp6[4:1]/5,,4,,6xq3[4:1],,5,,3xp6[4:1],,4,,6x,,5,,4-8[8:1],,3-1[8:1],,4,,3,,,,
5,,46,,37,,2/8x<4[4:1],,1,,4xV68[4:1],,3,,8x<4[4:1],,1,,4x,,3,,2-5[8:1],,1-6[8:1],,2,,1,,,,
3,,34,,25,,1/6v3[8:1],,78,,6,,1,1h[8:1],,7,7h[8:1],,8,,16,,2-7[8:1]/5,,,,2/6-3[8:1],,,,6<2v4[4:1]/2,,,,,,,,
A4f/3x-7[8:1],,,,3>4[16:3]/4,,,,3,,,3,,,2,,2-6[8:1],,,,2<3[16:3]/3,,,,2,,,1,,,
8,,7<4[8:1],,7,,3>8[8:1],,3,,7h[16:3],,,6h[16:3],,,5>6pp5[16:11]*<4qq5[16:11],,,,,,,,,,,,,,,,,,
7-4[8:1]/3v8[8:1],,,,37,,,,15,,,26,,,37,,8-4[8:1]/3v1[8:1],,,,38,,,,26,,,37,,,
8/4h[8:1],,1<6[8:1],,1,,5,,4,4h[16:3],,,1,,8w4[12:1],,17,17,,,,,,,,,,B1/B8,,E4/D4,E6/D6,,C,,
1V35[6:1],,2,,6<1[8:1],,7,,6-4[8:1],,2,,6,,8,,1x,2x,8x,7x,2x,3x,7x,6x,4x,3x,5x,6x,1xh,1xh,1xh,1xh,
8-4[8:1],,7,,8>3[8:1],,5,,6-2[8:1],,7,,5-3[8:1],,4,,7-5[8:1],,7p2q7[2:1],,,,,,,,,,,,,,Cf/B2/B3/B6/B7/E3/E7,,,,
3V17[6:1],,2,,6>3[8:1],,5,,6-1[8:1],,2,,3-8[8:1],,4,,7-4[8:1],,6,,7qq2[4:1]/E3/B3,,E1/B8,,,,,,
3xb<6[8:1],,6xb>3[8:1],,7xb,,8xb,,1xh[16:1],,3xh[16:1],,7xh[16:1],,5xh[16:1],,6,6,3,3,8bz4<5s1[8:3],,27,,,,,,,,,,
{8}
7x>6[2:3],,,,E8,,,,E2,,,,E4,,,,
6pp5qq5[4:3],,,,B4,,,1,1p5[4:1],,5p1[4:1],,1-7[6:1]*-3[6:1],,,,
5<4[4:5],,,,E5,,,,E3,,,,E1,,5-7[4:1],,7-4[4:1],,4-8[4:1],,8-3[4:1],,3-1[4:1],,1-4[4:1],,4-8[4:1],,8-5[4:1],,5pp5[8:7]*qq5[8:7],,,,,,,,,,Ch[2:1],,,,,
4,4,3,2q7p2q7[4:3],,E5,,,,E5,,,,E5,,,
5,E5/5,6,7V53V57V53[4:3],,C,,,,C,,,,C,
{24}
7,6,5,4x/8x,,,2,3,4,
{16}
5x/1x>7[4:1],,8,,7x<1[4:1],,8,,1x>7[4:1],,8,,7x<1[4:1],,8,,1x,,8,,7-3[8:1],,5-1[8:1],,7,,5,,,,
6,,56,,47,,8/3v6[8:1],,12,,3,,8,8h[8:1],,5,5h[8:1],,6,,47,,8/3-6[8:1],,,,3/7-2[8:1],,,,7,,{48}3x,4x,5x,6x,7x,8x,1x,2x/Cf,,,,,
{16}
,,3x-7b[8:1]/5x,,,,3>4b[16:3]/4,,,,3,,,3,,,2,,2-6b[8:1],,,,2<3b[16:3]/3,,,,2,,,1,,,
8,,7-5>4[8:1],,3-1<8[8:1],,7,,3,,7h[16:3],,,6h[16:3],,,5>6pp5[16:11]*<4qq5[16:11],,,,,,,,,,,,,,,,,,
2v5b[8:1]/6-1[8:1],,,,26,,,,37,,,26,,,15,,1v3b[8:1]/4-8[8:1],,,,14,,,,26,,,5h[16:3]/1,,,
8-3[8:1],,4-7[8:1],,8,,4,,2,2h[16:3],,,8,,1w5b[12:1],,37,37,,,,,,,,,,B1/B8/E1,,E4/D4/A4,E6/D6/A5,,C/B4/B5,,
{24}
1,,1h[8:1],,,4,4h[8:1],,,3,,3h[8:1],,,6,6h[8:1],,,5,,5,8h[8:1],,,
1,,1,4,,4,2,,2,6,,6,5,,5,7,,7h[12:1],,1x,,,,,
8,,8h[8:1],,,5,5h[8:1],,,6,,6h[8:1],,,3,3h[8:1],,,4,,4,1h[8:1],,,
8,,8,5,,5,7,,7,3,,3,4-8[12:1],,4,1,,1,4x,,,,,,{48}E3,,,
E7,,,E1,,,C,,,,,{72},{48}E4,,E5,,E6,,,,,{72},{48}E2,,,E8,,,B2,,,B7,,,B3,,,B6,,,C,,,,,
D8,,,D7,,,D6,,,D5,,,D4,,,D3,,,D2,,,,,,1,,,2,,,3,,,4,,,1b/5b,,,,,,3b/7b,,,,,,
E
